<?xml version="1.0" standalone="no"?>
<!DOCTYPE svg PUBLIC "-//W3C//DTD SVG 1.1//EN" "http://www.w3.org/Graphics/SVG/1.1/DTD/svg11.dtd" >
<svg xmlns="http://www.w3.org/2000/svg">
<metadata>Generated by IcoMoon</metadata>
<defs>
<font id="icomoon" horiz-adv-x="1024">
<font-face units-per-em="1024" ascent="960" descent="-64" />
<missing-glyph horiz-adv-x="1024" />
<glyph unicode="&#x20;" horiz-adv-x="512" d="" />
<glyph unicode="&#xe900;" horiz-adv-x="1257" d="M1064.421 954.226l-775.699-234.827c-25.023-7.699-57.744-17.323-84.692-57.744l-188.632-281.023c-9.624-13.474-11.549-28.872-7.699-44.271l65.444-223.278c3.85-15.398 15.398-26.947 30.797-32.722l307.97-130.887c48.12-19.248 84.692-7.699 105.865 0 0 0 348.391 105.865 583.218 177.083l153.985 306.045-140.511 494.677c-5.774 21.173-28.872 34.647-50.045 26.947zM219.429 247.82c-9.624-17.323-30.797-25.023-48.12-15.398s-23.098 30.797-15.398 48.12c9.624 17.323 30.797 25.023 48.12 15.398s25.023-30.797 15.398-48.12z" />
<glyph unicode="&#xe901;" horiz-adv-x="1257" d="M972.030 690.526c0-19.248-15.398-32.722-34.647-32.722s-34.647 15.398-34.647 32.722c0 19.248 15.398 32.722 34.647 32.722 21.173 1.925 34.647-13.474 34.647-32.722zM912.361 690.526c0-15.398 11.549-26.947 25.023-26.947s25.023 11.549 25.023 25.023c0 15.398-11.549 26.947-25.023 26.947s-25.023-9.624-25.023-25.023zM933.534 675.128h-7.699v32.722c3.85 0 7.699 0 13.474 0s9.624-1.925 11.549-1.925c1.925-1.925 3.85-3.85 3.85-7.699s-3.85-5.774-7.699-7.699v0c3.85-1.925 3.85-3.85 5.774-7.699 1.925-5.774 1.925-7.699 1.925-7.699h-7.699c-1.925 1.925-1.925 3.85-1.925 7.699s-1.925 5.774-7.699 5.774h-3.85v-13.474zM933.534 692.451h3.85c3.85 0 7.699 1.925 7.699 3.85 0 3.85-1.925 5.774-7.699 5.774-1.925 0-3.85 0-3.85 0v-9.624z" />
<glyph unicode="&#xe902;" horiz-adv-x="1257" d="M529.323 530.767v-134.737h-69.293v115.489c0 25.023-13.474 40.421-38.496 40.421-26.947 0-44.271-21.173-44.271-50.045v-105.865h-69.293v273.323l69.293 19.248v-115.489c15.398 25.023 40.421 38.496 71.218 38.496 50.045 1.925 80.842-30.797 80.842-80.842z" />
<glyph unicode="&#xe903;" horiz-adv-x="1257" d="M764.15 503.82c0-65.444-46.195-109.714-117.414-109.714s-117.414 44.271-117.414 109.714 46.195 109.714 117.414 109.714c69.293-1.925 117.414-44.271 117.414-109.714zM598.617 501.895c0-32.722 19.248-55.82 48.12-55.82s48.12 23.098 48.12 55.82c0 32.722-19.248 55.82-48.12 55.82s-48.12-23.098-48.12-55.82z" />
<glyph unicode="&#xe904;" horiz-adv-x="1257" d="M908.511 407.579c-15.398-9.624-36.571-15.398-57.744-15.398-40.421 0-71.218 23.098-71.218 67.368v94.316h-30.797v44.271h30.797v59.669h67.368v-59.669h57.744v-42.346h-57.744v-84.692c0-17.323 7.699-23.098 19.248-23.098 7.699 0 15.398 1.925 26.947 7.699l15.398-48.12z" />
<glyph unicode="&#xe905;" horiz-adv-x="1257" d="M485.053 176.602l-32.722 109.714-32.722-109.714h-53.895l-59.669 171.308h53.895l34.647-119.338 32.722 119.338h50.045l34.647-119.338 32.722 119.338h51.97l-61.594-171.308c0 0-50.045 0-50.045 0z" />
<glyph unicode="&#xe906;" horiz-adv-x="1257" d="M741.053 247.82h-121.263c5.774-21.173 19.248-32.722 40.421-32.722 15.398 0 28.872 5.774 40.421 17.323l28.872-28.872c-17.323-19.248-44.271-30.797-75.068-30.797-55.82 0-90.466 34.647-90.466 86.617 0 53.895 36.571 88.541 88.541 88.541 63.519 1.925 92.391-38.496 88.541-100.090zM689.083 276.692c0 21.173-13.474 34.647-32.722 34.647s-32.722-13.474-36.571-34.647h69.293z" />
<glyph unicode="&#xe907;" horiz-adv-x="1257" d="M898.887 247.82h-121.263c5.774-21.173 19.248-32.722 40.421-32.722 15.398 0 28.872 5.774 40.421 17.323l28.872-28.872c-17.323-19.248-44.271-30.797-75.068-30.797-55.82 0-90.466 34.647-90.466 86.617 0 53.895 36.571 88.541 88.541 88.541 61.594 1.925 92.391-38.496 88.541-100.090zM844.992 276.692c0 21.173-13.474 34.647-32.722 34.647s-32.722-13.474-36.571-34.647h69.293z" />
<glyph unicode="&#xe908;" horiz-adv-x="1257" d="M948.932 222.797v-46.195h-55.82v205.955c15.398 1.925 34.647 11.549 40.421 21.173l-3.85 9.624h19.248v-125.113l55.82 59.669h61.594l-63.519-65.444 65.444-105.865h-65.444l-36.571 65.444-17.323-19.248z" />
<glyph unicode="&#xe909;" horiz-adv-x="1257" d="M1018.226 315.188c7.699 13.474 42.346 48.12 42.346 48.12l42.346-238.677-82.767 140.511c-13.474 21.173-7.699 42.346-1.925 50.045z" />
<glyph unicode="&#xe90a;" horiz-adv-x="1257" d="M1256.902 430.677c-15.398-3.85-107.789-32.722-175.158-51.97-25.023-7.699-40.421-34.647-32.722-59.669l55.82-192.481 152.060 304.12z" />
<glyph unicode="&#xe90b;" horiz-adv-x="1257" d="M1062.496 958.075l-779.549-236.752c-25.023-7.699-57.744-17.323-84.692-59.669l-188.632-281.023c-9.624-13.474-11.549-28.872-7.699-44.271l65.444-225.203c3.85-15.398 15.398-26.947 30.797-34.647l309.895-130.887c48.12-19.248 84.692-7.699 107.789 0 0 0 350.316 105.865 587.068 177.083l153.985 306.045-142.436 500.451c-5.774 23.098-28.872 34.647-51.97 28.872zM213.654 245.895c-9.624-17.323-30.797-25.023-50.045-15.398-17.323 9.624-25.023 30.797-15.398 50.045 9.624 17.323 30.797 25.023 50.045 15.398s25.023-30.797 15.398-50.045z" />
<glyph unicode="&#xe90c;" horiz-adv-x="1257" d="M964.331 698.226c0-19.248-15.398-34.647-34.647-34.647s-34.647 15.398-34.647 34.647 15.398 34.647 34.647 32.722c19.248 1.925 34.647-13.474 34.647-32.722zM902.737 698.226c0-15.398 11.549-26.947 26.947-26.947s25.023 11.549 26.947 26.947c0 15.398-11.549 26.947-25.023 26.947-17.323 0-28.872-11.549-28.872-26.947zM923.91 680.902h-7.699v34.647c3.85 0 7.699 0 13.474 0s9.624-1.925 11.549-1.925c1.925-1.925 3.85-3.85 3.85-7.699s-3.85-7.699-7.699-7.699v0c3.85-1.925 5.774-3.85 5.774-7.699 1.925-5.774 1.925-7.699 1.925-7.699h-7.699c-1.925 1.925-1.925 3.85-1.925 7.699s-1.925 5.774-7.699 5.774h-3.85v-15.398zM923.91 700.15h3.85c3.85 0 7.699 1.925 7.699 5.774s-1.925 5.774-7.699 5.774c-1.925 0-3.85 0-3.85 0v-11.549z" />
<glyph unicode="&#xe90d;" horiz-adv-x="1257" d="M538.947 563.489v-128.962h-65.444v111.639c0 23.098-13.474 38.496-36.571 38.496-25.023 0-42.346-21.173-42.346-48.12v-102.015h-67.368v261.774l65.444 19.248v-109.714c15.398 25.023 38.496 36.571 69.293 36.571 46.195 0 76.992-30.797 76.992-78.917z" />
<glyph unicode="&#xe90e;" horiz-adv-x="1257" d="M762.226 536.541c0-63.519-44.271-105.865-111.639-105.865s-113.564 42.346-113.564 105.865 44.271 105.865 113.564 105.865c67.368-1.925 111.639-42.346 111.639-105.865zM604.391 534.617c0-32.722 19.248-53.895 46.195-53.895s46.195 21.173 46.195 53.895c0 30.797-19.248 53.895-46.195 53.895s-46.195-21.173-46.195-53.895z" />
<glyph unicode="&#xe90f;" horiz-adv-x="1257" d="M900.812 444.15c-15.398-9.624-34.647-13.474-55.82-13.474-40.421 0-69.293 23.098-69.293 65.444v90.466h-28.872v42.346h28.872v57.744h65.444v-57.744h53.895v-44.271h-53.895v-80.842c0-15.398 7.699-23.098 19.248-23.098 7.699 0 15.398 1.925 25.023 7.699l15.398-44.271z" />
<glyph unicode="&#xe910;" horiz-adv-x="1257" d="M485.053 365.233l-23.098-44.271c-25.023 13.474-48.12 21.173-65.444 21.173-11.549 0-21.173-3.85-21.173-13.474 0-28.872 107.789-15.398 107.789-86.617 0-42.346-36.571-65.444-86.617-65.444-34.647 0-67.368 9.624-92.391 28.872l23.098 42.346c23.098-17.323 50.045-25.023 73.143-25.023 13.474 0 23.098 3.85 23.098 13.474 0 30.797-105.865 15.398-105.865 86.617 0 42.346 36.571 65.444 82.767 65.444 28.872 0 57.744-9.624 84.692-23.098z" />
<glyph unicode="&#xe911;" horiz-adv-x="1257" d="M677.534 313.263v-134.737h-65.444v23.098c-13.474-17.323-34.647-26.947-63.519-26.947-44.271 0-71.218 26.947-71.218 65.444s26.947 61.594 78.917 61.594h53.895v3.85c0 21.173-13.474 32.722-40.421 32.722-17.323 0-40.421-5.774-61.594-17.323l-19.248 44.271c32.722 15.398 61.594 23.098 96.241 23.098 57.744 0 92.391-28.872 92.391-75.068zM612.090 249.744v19.248h-42.346c-19.248 0-28.872-7.699-28.872-23.098s11.549-25.023 28.872-25.023c21.173 0 38.496 11.549 42.346 28.872z" />
<glyph unicode="&#xe912;" horiz-adv-x="1257" d="M987.429 263.218h-144.361c5.774-25.023 23.098-38.496 48.12-38.496 17.323 0 34.647 7.699 50.045 21.173l34.647-34.647c-21.173-23.098-51.97-36.571-90.466-36.571-67.368 0-109.714 42.346-109.714 103.94 0 63.519 44.271 105.865 107.789 105.865 73.143 1.925 107.789-44.271 103.94-121.263zM923.91 299.789c0 25.023-15.398 42.346-40.421 42.346-23.098 0-38.496-17.323-42.346-42.346h82.767z" />
<glyph unicode="&#xe913;" horiz-adv-x="1257" d="M698.707 178.526v232.902c26.947 7.699 48.12 23.098 65.444 46.195v-279.098h-65.444z" />
<glyph unicode="&#xe914;" horiz-adv-x="1257" d="M311.82 78.436c0-5.774-3.85-9.624-9.624-9.624s-9.624 3.85-9.624 9.624 3.85 9.624 9.624 9.624c5.774 0 9.624-3.85 9.624-9.624z" />
<glyph unicode="&#xe915;" horiz-adv-x="1257" d="M375.338 122.707l-13.474-9.624c-3.85 3.85-9.624 7.699-15.398 7.699-9.624 0-15.398-7.699-15.398-17.323 0-11.549 5.774-17.323 15.398-17.323 7.699 0 11.549 1.925 15.398 7.699l13.474-9.624c-5.774-9.624-15.398-15.398-28.872-15.398-21.173 0-34.647 13.474-34.647 34.647s13.474 34.647 34.647 34.647c13.474 0 23.098-5.774 28.872-15.398z" />
<glyph unicode="&#xe916;" horiz-adv-x="1257" d="M442.707 103.459c0-21.173-15.398-34.647-36.571-34.647s-36.571 13.474-36.571 34.647 15.398 34.647 36.571 34.647c23.098 0 36.571-13.474 36.571-34.647zM390.737 103.459c0-11.549 5.774-19.248 17.323-19.248 9.624 0 17.323 7.699 17.323 19.248s-7.699 19.248-17.323 19.248c-9.624-1.925-17.323-9.624-17.323-19.248z" />
<glyph unicode="&#xe917;" horiz-adv-x="1257" d="M560.12 111.158v-42.346h-19.248v36.571c0 7.699-5.774 13.474-13.474 13.474-9.624 0-15.398-7.699-15.398-17.323v-32.722h-19.248v36.571c0 7.699-5.774 13.474-13.474 13.474-9.624 0-15.398-7.699-15.398-17.323v-32.722h-19.248v67.368h19.248v-11.549c3.85 7.699 13.474 11.549 23.098 11.549 11.549 0 19.248-5.774 23.098-15.398 3.85 9.624 13.474 15.398 25.023 15.398 15.398 1.925 25.023-9.624 25.023-25.023z" />
<glyph unicode="&#xe918;" horiz-adv-x="1257" d="M583.218 78.436c0-5.774-3.85-9.624-9.624-9.624s-9.624 3.85-9.624 9.624 3.85 9.624 9.624 9.624c5.774 0 9.624-3.85 9.624-9.624z" />
<glyph unicode="&#xe919;" horiz-adv-x="1257" d="M627.489 76.511c-3.85-5.774-11.549-9.624-21.173-9.624-13.474 0-23.098 9.624-23.098 21.173 0 13.474 9.624 19.248 25.023 19.248h19.248v1.925c0 7.699-3.85 11.549-13.474 11.549-5.774 0-13.474-1.925-19.248-5.774l-5.774 13.474c9.624 5.774 19.248 7.699 30.797 7.699 17.323 0 28.872-9.624 28.872-23.098v-44.271h-19.248l-1.925 7.699zM627.489 91.91v5.774h-15.398c-7.699 0-11.549-1.925-11.549-7.699s3.85-7.699 9.624-7.699c9.624 0 15.398 3.85 17.323 9.624z" />
<glyph unicode="&#xe91a;" horiz-adv-x="1257" d="M673.684 124.632c3.85 7.699 11.549 13.474 23.098 13.474v-17.323c-15.398 0-23.098-7.699-23.098-19.248v-32.722h-19.248v67.368h19.248v-11.549z" />
<glyph unicode="&#xe91b;" horiz-adv-x="1257" d="M1016.301 315.188c7.699 13.474 42.346 48.12 42.346 48.12l44.271-240.602-82.767 142.436c-13.474 21.173-9.624 42.346-3.85 50.045z" />
<glyph unicode="&#xe91c;" horiz-adv-x="1257" d="M1256.902 430.677c-15.398-3.85-107.789-32.722-177.083-53.895-25.023-7.699-40.421-34.647-32.722-61.594l55.82-192.481 153.985 307.97z" />
<glyph unicode="&#xe91d;" glyph-name="megaofertas" horiz-adv-x="1184" d="M1184.192 608.224v-231.968c0-16.448-14.112-29.664-30.88-28.16-14.848 1.312-25.696 14.72-25.696 29.632v230.496c0 11.904-0.352 22.944-10.464 41.6v0.064c-17.984 30.368-21.12 35.424-36.064 49.984l-35.168-268.96c-0.992-7.328-4.768-13.952-10.464-18.56l-577.504-460.96-0.32 0.48c-14.528-11.648-33.44-17.664-53.344-15.424-19.488 2.208-36.256 11.872-47.84 25.952l-1.408 1.76-339.904 425.856 0.672 0.64c-11.552 14.464-17.6 33.376-15.36 53.28s12.32 36.992 26.816 48.64l577.248 460.32c5.76 4.608 13.024 6.752 20.384 6.048l455.776-41.728c0.16 0 0.32 0 0.512-0.064 7.52-0.832 14.304-4.608 19.008-10.496 4.864-6.048 6.848-13.856 5.792-21.536l-16.352-120.672c27.072-16 60.704-41.024 79.136-82.080 0.064-0.16 0.16-0.32 0.224-0.48 10.816-22.144 15.136-46.656 15.136-73.728zM719.776 573.28c0 6.016-5.44 10.752-12.288 10.752h-45.856c-3.712 0-7.104-1.504-9.344-3.872l-143.712-152.928-143.52 152.928c-2.464 2.336-5.888 3.872-9.568 3.872h-45.856c-6.912 0-12.288-4.768-12.288-10.752v-291.584c0-6.016 5.376-10.752 12.288-10.752h83.648c6.848 0 12.288 4.768 12.288 10.752v124.64l93.472-102.656c4.64-5.184 14.464-5.184 19.136 0l93.728 102.656v-124.64c0-6.016 5.376-10.752 12.224-10.752h83.424c6.848 0 12.288 4.768 12.288 10.752v291.584zM1045.952 863.232l-360.16 32.928 312.48-391.456 29.728 223.392c-3.040 0.64-6.016 1.088-9.088 1.472l-37.056 4.128c-0.992-1.632-2.048-3.136-3.2-4.704-2.24-3.040-4.8-5.952-7.584-8.672-1.408-1.312-2.88-2.624-4.448-3.872-29.152-23.264-71.584-18.496-94.88 10.656-23.2 29.088-18.432 71.52 10.656 94.784 29.152 23.264 71.584 18.496 94.816-10.656 5.12-6.432 8.832-13.536 11.296-20.896l36.672-4.128c3.488-0.352 6.88-0.928 10.304-1.504l10.464 78.56z" />
<glyph unicode="&#xe91e;" horiz-adv-x="1257" d="M1064.421 954.226l-775.699-234.827c-25.023-7.699-57.744-17.323-84.692-57.744l-188.632-281.023c-9.624-13.474-11.549-28.872-7.699-44.271l65.444-223.278c3.85-15.398 15.398-26.947 30.797-32.722l307.97-130.887c48.12-19.248 84.692-7.699 105.865 0 0 0 348.391 105.865 583.218 177.083l153.985 306.045-140.511 494.677c-5.774 21.173-28.872 34.647-50.045 26.947zM219.429 247.82c-9.624-17.323-30.797-25.023-48.12-15.398s-23.098 30.797-15.398 48.12c9.624 17.323 30.797 25.023 48.12 15.398s25.023-30.797 15.398-48.12z" />
<glyph unicode="&#xe91f;" horiz-adv-x="1257" d="M972.030 690.526c0-19.248-15.398-32.722-34.647-32.722s-34.647 15.398-34.647 32.722c0 19.248 15.398 32.722 34.647 32.722 21.173 1.925 34.647-13.474 34.647-32.722zM912.361 690.526c0-15.398 11.549-26.947 25.023-26.947s25.023 11.549 25.023 25.023c0 15.398-11.549 26.947-25.023 26.947s-25.023-9.624-25.023-25.023zM933.534 675.128h-7.699v32.722c3.85 0 7.699 0 13.474 0s9.624-1.925 11.549-1.925c1.925-1.925 3.85-3.85 3.85-7.699s-3.85-5.774-7.699-7.699v0c3.85-1.925 3.85-3.85 5.774-7.699 1.925-5.774 1.925-7.699 1.925-7.699h-7.699c-1.925 1.925-1.925 3.85-1.925 7.699s-1.925 5.774-7.699 5.774h-3.85v-13.474zM933.534 692.451h3.85c3.85 0 7.699 1.925 7.699 3.85 0 3.85-1.925 5.774-7.699 5.774-1.925 0-3.85 0-3.85 0v-9.624z" />
<glyph unicode="&#xe920;" horiz-adv-x="1257" d="M529.323 530.767v-134.737h-69.293v115.489c0 25.023-13.474 40.421-38.496 40.421-26.947 0-44.271-21.173-44.271-50.045v-105.865h-69.293v273.323l69.293 19.248v-115.489c15.398 25.023 40.421 38.496 71.218 38.496 50.045 1.925 80.842-30.797 80.842-80.842z" />
<glyph unicode="&#xe921;" horiz-adv-x="1257" d="M764.15 503.82c0-65.444-46.195-109.714-117.414-109.714s-117.414 44.271-117.414 109.714 46.195 109.714 117.414 109.714c69.293-1.925 117.414-44.271 117.414-109.714zM598.617 501.895c0-32.722 19.248-55.82 48.12-55.82s48.12 23.098 48.12 55.82c0 32.722-19.248 55.82-48.12 55.82s-48.12-23.098-48.12-55.82z" />
<glyph unicode="&#xe922;" horiz-adv-x="1257" d="M908.511 407.579c-15.398-9.624-36.571-15.398-57.744-15.398-40.421 0-71.218 23.098-71.218 67.368v94.316h-30.797v44.271h30.797v59.669h67.368v-59.669h57.744v-42.346h-57.744v-84.692c0-17.323 7.699-23.098 19.248-23.098 7.699 0 15.398 1.925 26.947 7.699l15.398-48.12z" />
<glyph unicode="&#xe923;" horiz-adv-x="1257" d="M485.053 176.602l-32.722 109.714-32.722-109.714h-53.895l-59.669 171.308h53.895l34.647-119.338 32.722 119.338h50.045l34.647-119.338 32.722 119.338h51.97l-61.594-171.308c0 0-50.045 0-50.045 0z" />
<glyph unicode="&#xe924;" horiz-adv-x="1257" d="M741.053 247.82h-121.263c5.774-21.173 19.248-32.722 40.421-32.722 15.398 0 28.872 5.774 40.421 17.323l28.872-28.872c-17.323-19.248-44.271-30.797-75.068-30.797-55.82 0-90.466 34.647-90.466 86.617 0 53.895 36.571 88.541 88.541 88.541 63.519 1.925 92.391-38.496 88.541-100.090zM689.083 276.692c0 21.173-13.474 34.647-32.722 34.647s-32.722-13.474-36.571-34.647h69.293z" />
<glyph unicode="&#xe925;" horiz-adv-x="1257" d="M898.887 247.82h-121.263c5.774-21.173 19.248-32.722 40.421-32.722 15.398 0 28.872 5.774 40.421 17.323l28.872-28.872c-17.323-19.248-44.271-30.797-75.068-30.797-55.82 0-90.466 34.647-90.466 86.617 0 53.895 36.571 88.541 88.541 88.541 61.594 1.925 92.391-38.496 88.541-100.090zM844.992 276.692c0 21.173-13.474 34.647-32.722 34.647s-32.722-13.474-36.571-34.647h69.293z" />
<glyph unicode="&#xe926;" horiz-adv-x="1257" d="M948.932 222.797v-46.195h-55.82v205.955c15.398 1.925 34.647 11.549 40.421 21.173l-3.85 9.624h19.248v-125.113l55.82 59.669h61.594l-63.519-65.444 65.444-105.865h-65.444l-36.571 65.444-17.323-19.248z" />
<glyph unicode="&#xe927;" horiz-adv-x="1257" d="M1018.226 315.188c7.699 13.474 42.346 48.12 42.346 48.12l42.346-238.677-82.767 140.511c-13.474 21.173-7.699 42.346-1.925 50.045z" />
<glyph unicode="&#xe928;" horiz-adv-x="1257" d="M1256.902 430.677c-15.398-3.85-107.789-32.722-175.158-51.97-25.023-7.699-40.421-34.647-32.722-59.669l55.82-192.481 152.060 304.12z" />
<glyph unicode="&#xe929;" horiz-adv-x="1257" d="M1062.496 958.075l-779.549-236.752c-25.023-7.699-57.744-17.323-84.692-59.669l-188.632-281.023c-9.624-13.474-11.549-28.872-7.699-44.271l65.444-225.203c3.85-15.398 15.398-26.947 30.797-34.647l309.895-130.887c48.12-19.248 84.692-7.699 107.789 0 0 0 350.316 105.865 587.068 177.083l153.985 306.045-142.436 500.451c-5.774 23.098-28.872 34.647-51.97 28.872zM213.654 245.895c-9.624-17.323-30.797-25.023-50.045-15.398-17.323 9.624-25.023 30.797-15.398 50.045 9.624 17.323 30.797 25.023 50.045 15.398s25.023-30.797 15.398-50.045z" />
<glyph unicode="&#xe92a;" horiz-adv-x="1257" d="M964.331 698.226c0-19.248-15.398-34.647-34.647-34.647s-34.647 15.398-34.647 34.647 15.398 34.647 34.647 32.722c19.248 1.925 34.647-13.474 34.647-32.722zM902.737 698.226c0-15.398 11.549-26.947 26.947-26.947s25.023 11.549 26.947 26.947c0 15.398-11.549 26.947-25.023 26.947-17.323 0-28.872-11.549-28.872-26.947zM923.91 680.902h-7.699v34.647c3.85 0 7.699 0 13.474 0s9.624-1.925 11.549-1.925c1.925-1.925 3.85-3.85 3.85-7.699s-3.85-7.699-7.699-7.699v0c3.85-1.925 5.774-3.85 5.774-7.699 1.925-5.774 1.925-7.699 1.925-7.699h-7.699c-1.925 1.925-1.925 3.85-1.925 7.699s-1.925 5.774-7.699 5.774h-3.85v-15.398zM923.91 700.15h3.85c3.85 0 7.699 1.925 7.699 5.774s-1.925 5.774-7.699 5.774c-1.925 0-3.85 0-3.85 0v-11.549z" />
<glyph unicode="&#xe92b;" horiz-adv-x="1257" d="M538.947 563.489v-128.962h-65.444v111.639c0 23.098-13.474 38.496-36.571 38.496-25.023 0-42.346-21.173-42.346-48.12v-102.015h-67.368v261.774l65.444 19.248v-109.714c15.398 25.023 38.496 36.571 69.293 36.571 46.195 0 76.992-30.797 76.992-78.917z" />
<glyph unicode="&#xe92c;" horiz-adv-x="1257" d="M762.226 536.541c0-63.519-44.271-105.865-111.639-105.865s-113.564 42.346-113.564 105.865 44.271 105.865 113.564 105.865c67.368-1.925 111.639-42.346 111.639-105.865zM604.391 534.617c0-32.722 19.248-53.895 46.195-53.895s46.195 21.173 46.195 53.895c0 30.797-19.248 53.895-46.195 53.895s-46.195-21.173-46.195-53.895z" />
<glyph unicode="&#xe92d;" horiz-adv-x="1257" d="M900.812 444.15c-15.398-9.624-34.647-13.474-55.82-13.474-40.421 0-69.293 23.098-69.293 65.444v90.466h-28.872v42.346h28.872v57.744h65.444v-57.744h53.895v-44.271h-53.895v-80.842c0-15.398 7.699-23.098 19.248-23.098 7.699 0 15.398 1.925 25.023 7.699l15.398-44.271z" />
<glyph unicode="&#xe92e;" horiz-adv-x="1257" d="M485.053 365.233l-23.098-44.271c-25.023 13.474-48.12 21.173-65.444 21.173-11.549 0-21.173-3.85-21.173-13.474 0-28.872 107.789-15.398 107.789-86.617 0-42.346-36.571-65.444-86.617-65.444-34.647 0-67.368 9.624-92.391 28.872l23.098 42.346c23.098-17.323 50.045-25.023 73.143-25.023 13.474 0 23.098 3.85 23.098 13.474 0 30.797-105.865 15.398-105.865 86.617 0 42.346 36.571 65.444 82.767 65.444 28.872 0 57.744-9.624 84.692-23.098z" />
<glyph unicode="&#xe92f;" horiz-adv-x="1257" d="M677.534 313.263v-134.737h-65.444v23.098c-13.474-17.323-34.647-26.947-63.519-26.947-44.271 0-71.218 26.947-71.218 65.444s26.947 61.594 78.917 61.594h53.895v3.85c0 21.173-13.474 32.722-40.421 32.722-17.323 0-40.421-5.774-61.594-17.323l-19.248 44.271c32.722 15.398 61.594 23.098 96.241 23.098 57.744 0 92.391-28.872 92.391-75.068zM612.090 249.744v19.248h-42.346c-19.248 0-28.872-7.699-28.872-23.098s11.549-25.023 28.872-25.023c21.173 0 38.496 11.549 42.346 28.872z" />
<glyph unicode="&#xe930;" horiz-adv-x="1257" d="M987.429 263.218h-144.361c5.774-25.023 23.098-38.496 48.12-38.496 17.323 0 34.647 7.699 50.045 21.173l34.647-34.647c-21.173-23.098-51.97-36.571-90.466-36.571-67.368 0-109.714 42.346-109.714 103.94 0 63.519 44.271 105.865 107.789 105.865 73.143 1.925 107.789-44.271 103.94-121.263zM923.91 299.789c0 25.023-15.398 42.346-40.421 42.346-23.098 0-38.496-17.323-42.346-42.346h82.767z" />
<glyph unicode="&#xe931;" horiz-adv-x="1257" d="M698.707 178.526v232.902c26.947 7.699 48.12 23.098 65.444 46.195v-279.098h-65.444z" />
<glyph unicode="&#xe932;" horiz-adv-x="1257" d="M311.82 78.436c0-5.774-3.85-9.624-9.624-9.624s-9.624 3.85-9.624 9.624 3.85 9.624 9.624 9.624c5.774 0 9.624-3.85 9.624-9.624z" />
<glyph unicode="&#xe933;" horiz-adv-x="1257" d="M375.338 122.707l-13.474-9.624c-3.85 3.85-9.624 7.699-15.398 7.699-9.624 0-15.398-7.699-15.398-17.323 0-11.549 5.774-17.323 15.398-17.323 7.699 0 11.549 1.925 15.398 7.699l13.474-9.624c-5.774-9.624-15.398-15.398-28.872-15.398-21.173 0-34.647 13.474-34.647 34.647s13.474 34.647 34.647 34.647c13.474 0 23.098-5.774 28.872-15.398z" />
<glyph unicode="&#xe934;" horiz-adv-x="1257" d="M442.707 103.459c0-21.173-15.398-34.647-36.571-34.647s-36.571 13.474-36.571 34.647 15.398 34.647 36.571 34.647c23.098 0 36.571-13.474 36.571-34.647zM390.737 103.459c0-11.549 5.774-19.248 17.323-19.248 9.624 0 17.323 7.699 17.323 19.248s-7.699 19.248-17.323 19.248c-9.624-1.925-17.323-9.624-17.323-19.248z" />
<glyph unicode="&#xe935;" horiz-adv-x="1257" d="M560.12 111.158v-42.346h-19.248v36.571c0 7.699-5.774 13.474-13.474 13.474-9.624 0-15.398-7.699-15.398-17.323v-32.722h-19.248v36.571c0 7.699-5.774 13.474-13.474 13.474-9.624 0-15.398-7.699-15.398-17.323v-32.722h-19.248v67.368h19.248v-11.549c3.85 7.699 13.474 11.549 23.098 11.549 11.549 0 19.248-5.774 23.098-15.398 3.85 9.624 13.474 15.398 25.023 15.398 15.398 1.925 25.023-9.624 25.023-25.023z" />
<glyph unicode="&#xe936;" horiz-adv-x="1257" d="M583.218 78.436c0-5.774-3.85-9.624-9.624-9.624s-9.624 3.85-9.624 9.624 3.85 9.624 9.624 9.624c5.774 0 9.624-3.85 9.624-9.624z" />
<glyph unicode="&#xe937;" horiz-adv-x="1257" d="M627.489 76.511c-3.85-5.774-11.549-9.624-21.173-9.624-13.474 0-23.098 9.624-23.098 21.173 0 13.474 9.624 19.248 25.023 19.248h19.248v1.925c0 7.699-3.85 11.549-13.474 11.549-5.774 0-13.474-1.925-19.248-5.774l-5.774 13.474c9.624 5.774 19.248 7.699 30.797 7.699 17.323 0 28.872-9.624 28.872-23.098v-44.271h-19.248l-1.925 7.699zM627.489 91.91v5.774h-15.398c-7.699 0-11.549-1.925-11.549-7.699s3.85-7.699 9.624-7.699c9.624 0 15.398 3.85 17.323 9.624z" />
<glyph unicode="&#xe938;" horiz-adv-x="1257" d="M673.684 124.632c3.85 7.699 11.549 13.474 23.098 13.474v-17.323c-15.398 0-23.098-7.699-23.098-19.248v-32.722h-19.248v67.368h19.248v-11.549z" />
<glyph unicode="&#xe939;" horiz-adv-x="1257" d="M1016.301 315.188c7.699 13.474 42.346 48.12 42.346 48.12l44.271-240.602-82.767 142.436c-13.474 21.173-9.624 42.346-3.85 50.045z" />
<glyph unicode="&#xe93a;" horiz-adv-x="1257" d="M1256.902 430.677c-15.398-3.85-107.789-32.722-177.083-53.895-25.023-7.699-40.421-34.647-32.722-61.594l55.82-192.481 153.985 307.97z" />
<glyph unicode="&#xe93b;" glyph-name="uso-marca" d="M25.6 444.8c0 272 214.4 489.6 486.4 489.6 278.4 0 486.4-214.4 486.4-486.4 0-275.2-214.4-486.4-486.4-486.4-268.8 0-486.4 208-486.4 483.2zM944 448c0 249.6-185.6 438.4-432 438.4s-432-192-432-438.4c0-249.6 192-435.2 432-435.2 243.2-3.2 432 185.6 432 435.2zM352 716.8h160c108.8 0 185.6-48 185.6-144v-3.2c0-83.2-54.4-128-131.2-137.6l160-233.6h-67.2l-156.8 227.2h-86.4v-227.2h-64v518.4zM515.2 473.6c83.2 0 121.6 28.8 121.6 96v3.2c0 70.4-38.4 96-121.6 96h-102.4v-192h102.4z" />
<glyph unicode="&#xe93c;" glyph-name="membresia-grupoe" d="M64.6 507.1h19.8l15.5-41.2 15.3 41.2h19.5v-66.2h-14.9v46.5l-18.3-46.5h-4.9l-18.6 46.5v-46.5h-13.4v66.2zM144.1 454.3c0 11.3 10.4 15.6 25.2 15.6h5.5v1.9c0 5.7-1.8 8.9-7.9 8.9-5.3 0-7.7-2.7-8.2-6.9h-12.7c0.8 11.5 9.9 16.6 21.8 16.6s20.3-4.8 20.3-18v-31.6h-13.1v5.8c-2.8-3.9-7-6.9-14.6-6.9-8.8 0.1-16.3 4.4-16.3 14.6zM174.8 457.8v4.1h-5.2c-7.8 0-12.3-1.7-12.3-6.9 0-3.5 2.1-5.8 7-5.8 6 0 10.5 3.2 10.5 8.6zM167.6 510.6h14.1l-9.6-14.7h-9.7l5.2 14.7zM196 456h12.5c0.6-4.4 2.7-6.9 8.5-6.9 5.2 0 7.6 1.9 7.6 5.3s-2.9 4.7-9.8 5.7c-12.9 1.9-17.9 5.7-17.9 15.1 0 10.1 9.3 15.1 19.2 15.1 10.7 0 18.8-3.9 20-15h-12.3c-0.7 4-3 5.8-7.6 5.8-4.4 0-6.9-2-6.9-5 0-3.1 2.3-4.3 9.4-5.3 12.1-1.8 18.8-4.8 18.8-15.2 0-10.5-7.6-15.9-20.4-15.9-13 0.1-20.6 5.9-21.1 16.3zM263.7 464.4v0.7c0 15.9 9.2 25.3 21.3 25.3 7.8 0 12.6-3.4 15.3-8.3v29.2h13.3v-70.4h-13.3v8.1c-2.5-4.9-8.4-9.1-15.6-9.1-11.7-0.1-21 8.4-21 24.5zM300.7 464.8v0.7c0 9.6-4.3 14.5-11.6 14.5-7.5 0-11.7-5.1-11.7-14.7v-0.7c0-9.6 4.6-14.4 11.3-14.4 7.1 0.1 12 4.8 12 14.6zM322.6 464.5v0.7c0 15.3 10.8 25.2 24.9 25.2 12.5 0 23.6-7.3 23.6-24.6v-3.7h-34.9c0.4-8.1 4.7-12.7 12-12.7 6.2 0 9.3 2.7 10.1 6.8h12.7c-1.6-10.5-9.9-16.3-23.2-16.3-14.5-0.1-25.2 9.1-25.2 24.6zM358.1 470.3c-0.5 7.3-4.2 10.8-10.6 10.8-6 0-10.1-4-11.1-10.8h21.7zM400.1 458.1v31.2h13.3v-29.4c0-6.6 2.7-9.7 8.4-9.7 5.6 0 10.1 3.5 10.1 10.7v28.4h13.3v-48.4h-13.2v7.6c-2.5-4.9-7.4-8.6-15.4-8.6-9.4-0.1-16.5 5.5-16.5 18.2zM457.2 489.3h13.4v-7.7c2.4 4.8 7.7 8.8 15.7 8.8 9.5 0 16.3-5.7 16.3-18.7v-30.8h-13.4v28.9c0 6.6-2.6 9.7-8.5 9.7-5.7 0-10.1-3.5-10.1-10.7v-28h-13.4v48.5zM511 454.3c0 11.3 10.4 15.6 25.2 15.6h5.5v1.9c0 5.7-1.8 8.9-7.9 8.9-5.3 0-7.7-2.7-8.2-6.9h-12.7c0.8 11.5 9.9 16.6 21.8 16.6s20.3-4.8 20.3-18v-31.6h-13.1v5.8c-2.8-3.9-7-6.9-14.6-6.9-8.9 0.1-16.3 4.4-16.3 14.6zM541.7 457.8v4.1h-5.2c-7.8 0-12.3-1.7-12.3-6.9 0-3.5 2.1-5.8 7-5.8 5.9 0 10.5 3.2 10.5 8.6zM584 464.5v0.7c0 15.3 10.8 25.2 24.9 25.2 12.5 0 23.6-7.3 23.6-24.6v-3.7h-34.9c0.4-8.1 4.7-12.7 12-12.7 6.2 0 9.3 2.7 10.1 6.8h12.7c-1.6-10.5-9.9-16.3-23.2-16.3-14.5-0.1-25.2 9.1-25.2 24.6zM619.5 470.3c-0.5 7.3-4.2 10.8-10.6 10.8-6 0-10.1-4-11.1-10.8h21.7zM641.3 489.3h13.4v-7.4c2.4 4.5 7.6 8.5 14.8 8.5 6.4 0 11.2-2.7 13.5-8.4 3.9 5.8 10.2 8.4 16.3 8.4 9 0 15.9-5.6 15.9-18.5v-31h-13.2v29.5c0 6.2-2.8 9-7.6 9-5.2 0-9.4-3.3-9.4-9.9v-28.6h-13.3v29.5c0 6.2-2.9 9-7.6 9-5.2 0-9.4-3.3-9.4-9.9v-28.6h-13.4v48.4zM726.8 489.3h13.4v-7.6c2.7 4.6 8.3 8.7 15.5 8.7 11.9 0 21.1-8.8 21.1-24.8v-0.7c0-16-9.1-25-21.1-25-7.5 0-13 3.7-15.5 8.4v-23.9h-13.4v64.9zM763.2 464.8v0.7c0 9.8-4.8 14.6-11.6 14.6-7 0-11.9-4.9-11.9-14.6v-0.7c0-9.7 4.6-14.4 11.9-14.4 7.6-0.1 11.6 4.9 11.6 14.4zM785.8 489.3h13.4v-9.3c3.1 6.5 7.8 9.9 15.7 10v-12.5c-9.9 0.1-15.7-3.1-15.7-12.4v-24.3h-13.4v48.5zM819.8 464.5v0.7c0 15.3 10.8 25.2 24.9 25.2 12.5 0 23.6-7.3 23.6-24.6v-3.7h-34.9c0.4-8.1 4.7-12.7 12-12.7 6.2 0 9.3 2.7 10.1 6.8h12.7c-1.6-10.5-9.9-16.3-23.2-16.3-14.5-0.1-25.2 9.1-25.2 24.6zM855.3 470.3c-0.5 7.3-4.2 10.8-10.6 10.8-6 0-10.1-4-11.1-10.8h21.7zM874.1 456h12.5c0.6-4.4 2.7-6.9 8.5-6.9 5.2 0 7.6 1.9 7.6 5.3s-2.9 4.7-9.8 5.7c-12.9 1.9-17.9 5.7-17.9 15.1 0 10.1 9.3 15.1 19.2 15.1 10.7 0 18.8-3.9 20-15h-12.3c-0.7 4-3 5.8-7.6 5.8-4.4 0-6.9-2-6.9-5 0-3.1 2.3-4.3 9.4-5.3 12.1-1.8 18.8-4.8 18.8-15.2 0-10.5-7.6-15.9-20.4-15.9-13 0.1-20.6 5.9-21.1 16.3zM921 454.3c0 11.3 10.4 15.6 25.2 15.6h5.5v1.9c0 5.7-1.8 8.9-7.9 8.9-5.3 0-7.7-2.7-8.2-6.9h-12.7c0.8 11.5 9.9 16.6 21.8 16.6s20.3-4.8 20.3-18v-31.6h-13.1v5.8c-2.8-3.9-7-6.9-14.6-6.9-8.9 0.1-16.3 4.4-16.3 14.6zM951.6 457.8v4.1h-5.2c-7.8 0-12.3-1.7-12.3-6.9 0-3.5 2.1-5.8 7-5.8 6 0 10.5 3.2 10.5 8.6zM348.1 365.4v0.7c0 15.2 11 25.1 25.6 25.1s25.5-9.7 25.5-24.8v-0.7c0-15.3-11-25-25.6-25-14.4 0-25.5 9.6-25.5 24.7zM385.6 365.6v0.6c0 9.3-4.4 14.8-11.9 14.8-7.4 0-11.9-5.4-11.9-14.6v-0.7c0-9.3 4.3-14.8 11.9-14.8 7.5 0 11.9 5.5 11.9 14.7zM373.5 411.5h14.1l-9.6-14.7h-9.7l5.2 14.7zM428.7 390.1h13.4v-7.4c2.4 4.5 7.6 8.5 14.8 8.5 6.4 0 11.2-2.7 13.5-8.4 3.9 5.8 10.2 8.4 16.3 8.4 9 0 15.9-5.6 15.9-18.5v-31h-13.3v29.5c0 6.2-2.8 9-7.6 9-5.2 0-9.4-3.3-9.4-9.9v-28.6h-13.3v29.5c0 6.2-2.9 9-7.6 9-5.2 0-9.4-3.3-9.4-9.9v-28.6h-13.4v48.4zM511.1 355.1c0 11.3 10.4 15.6 25.2 15.6h5.5v1.9c0 5.7-1.8 8.9-7.9 8.9-5.3 0-7.7-2.7-8.2-6.9h-12.7c0.8 11.5 9.9 16.6 21.8 16.6s20.3-4.8 20.3-18v-31.6h-13.1v5.8c-2.8-3.9-7-6.9-14.6-6.9-8.9 0.2-16.3 4.4-16.3 14.6zM541.7 358.7v4.1h-5.2c-7.8 0-12.3-1.7-12.3-6.9 0-3.5 2.1-5.8 7-5.8 6-0.1 10.5 3.2 10.5 8.6zM566.5 390.1h13.4v-9.3c3.1 6.5 7.8 9.9 15.7 10v-12.5c-9.9 0.1-15.7-3.1-15.7-12.4v-24.3h-13.4v48.5zM600.4 365.3v0.7c0 15.7 11.2 25.2 25 25.2 11.2 0 21.6-4.9 22.8-18.8h-12.7c-0.9 5.7-4.4 8.2-9.8 8.2-6.9 0-11.6-5.2-11.6-14.4v-0.7c0-9.7 4.4-14.7 11.9-14.7 5.4 0 9.7 3.1 10.4 9.4h12.1c-0.7-11.5-9.1-19.5-23.2-19.5s-24.9 8.8-24.9 24.6zM653.8 355.1c0 11.3 10.4 15.6 25.2 15.6h5.5v1.9c0 5.7-1.8 8.9-7.9 8.9-5.3 0-7.7-2.7-8.2-6.9h-12.7c0.8 11.5 9.9 16.6 21.8 16.6s20.3-4.8 20.3-18v-31.6h-13.1v5.8c-2.8-3.9-7-6.9-14.6-6.9-8.9 0.2-16.3 4.4-16.3 14.6zM684.5 358.7v4.1h-5.2c-7.8 0-12.3-1.7-12.3-6.9 0-3.5 2.1-5.8 7-5.8 5.9-0.1 10.5 3.2 10.5 8.6z" />
<glyph unicode="&#xe93d;" glyph-name="membresia-mediana" d="M138.085 473.6l-13.964-10.085v10.861l15.515 10.861h10.861v-66.715h-12.412v55.079zM176.873 473.6l-13.964-10.085v10.861l15.515 10.861h10.861v-66.715h-12.412v55.079zM224.194 432.485c0 11.636 10.861 15.515 24.824 15.515h6.206v2.327c0 6.206-2.327 10.085-8.533 10.085s-8.533-3.103-9.309-7.758h-10.861c0.776 11.636 10.085 16.291 20.945 16.291s19.394-4.655 19.394-17.842v-31.806h-10.861v5.43c-3.103-3.879-7.758-6.982-14.739-6.982-10.085 0.776-17.067 4.655-17.067 14.739zM255.224 436.364v4.655h-5.43c-8.533 0-13.964-2.327-13.964-7.758 0-3.879 2.327-6.982 7.758-6.982 6.206 0 11.636 3.879 11.636 10.085zM297.891 439.467h11.636c0.776-6.982 4.655-12.412 13.188-12.412s12.412 3.879 12.412 10.861-3.879 10.861-11.636 10.861h-5.43v8.533h4.655c7.758 0 10.861 3.879 10.861 10.085 0 5.43-3.103 9.309-10.085 9.309s-11.636-4.655-12.412-10.861h-10.861c0.776 11.636 9.309 20.17 23.273 20.17s21.721-7.758 21.721-17.842c0-7.758-4.655-12.412-10.861-14.739 7.758-1.552 13.188-6.982 13.188-16.291 0-12.412-9.309-20.17-24.824-20.17-15.515 1.552-24.048 10.085-24.824 22.497zM369.261 473.6l-14.739-10.085v10.861l15.515 10.861h10.861v-66.715h-12.412l0.776 55.079zM416.582 442.57v0c0 15.515 10.085 25.6 24.048 25.6 12.412 0 23.273-6.982 23.273-24.824v-3.103h-35.685c0-9.309 4.655-14.739 13.188-14.739 6.982 0 10.085 2.327 10.861 7.758h10.861c-1.552-10.085-10.085-15.515-22.497-15.515-13.964 0.776-24.048 10.085-24.048 24.824zM452.267 448.776c-0.776 8.533-4.655 12.412-11.636 12.412s-11.636-4.655-12.412-12.412h24.048zM473.988 467.394h11.636v-7.758c2.327 4.655 7.758 8.533 14.739 8.533 6.206 0 11.636-2.327 13.964-8.533 3.879 6.206 10.085 8.533 16.291 8.533 9.309 0 16.291-5.43 16.291-18.618v-31.030h-11.636v30.255c0 6.982-3.103 10.085-8.533 10.085s-10.861-3.103-10.861-10.861v-29.479h-11.636v30.255c0 6.982-3.103 10.085-8.533 10.085s-10.861-3.879-10.861-10.861v-29.479h-11.636l0.776 48.873zM559.321 467.394h11.636v-7.758c2.327 4.655 8.533 8.533 16.291 8.533 12.412 0 21.721-9.309 21.721-24.824v-0.776c0-15.515-9.309-24.824-21.721-24.824-7.758 0-13.188 3.879-16.291 8.533v-24.048h-11.636v65.164zM596.558 443.345v0c0 11.636-5.43 17.067-13.188 17.067s-13.188-5.43-13.188-16.291v-0.776c0-10.861 5.43-16.291 13.188-16.291 8.533 0 13.188 5.43 13.188 16.291zM618.279 490.667h11.636v-71.37h-11.636v71.37zM640 442.57v0c0 15.515 10.085 25.6 24.048 25.6 12.412 0 23.273-6.982 23.273-24.824v-3.103h-35.685c0-9.309 4.655-14.739 13.188-14.739 6.982 0 10.085 2.327 10.861 7.758h10.861c-1.552-10.085-10.085-15.515-22.497-15.515-13.964 0.776-24.048 10.085-24.048 24.824zM676.461 448.776c-0.776 8.533-4.655 12.412-11.636 12.412s-11.636-4.655-12.412-12.412h24.048zM694.303 432.485c0 11.636 10.861 15.515 24.824 15.515h6.206v2.327c0 6.206-2.327 10.085-8.533 10.085s-8.533-3.103-9.309-7.758h-10.861c0.776 11.636 10.085 16.291 20.945 16.291s19.394-4.655 19.394-17.842v-31.806h-10.861v5.43c-3.103-3.879-7.758-6.982-14.739-6.982-10.085 0.776-17.067 4.655-17.067 14.739zM725.333 436.364v4.655h-5.43c-8.533 0-13.964-2.327-13.964-7.758 0-3.879 2.327-6.982 7.758-6.982 6.206 0 11.636 3.879 11.636 10.085zM746.279 442.57v0c0 16.291 9.309 26.376 21.721 26.376 7.758 0 13.188-3.879 15.515-8.533v30.255h11.636v-71.37h-11.636v8.533c-2.327-4.655-8.533-9.309-16.291-9.309-11.636 0-20.945 8.533-20.945 24.048zM784.291 443.345v0c0 11.636-4.655 17.067-13.188 17.067s-13.188-5.43-13.188-16.291v-0.776c0-10.861 5.43-15.515 12.412-15.515 7.758-0.776 13.964 4.655 13.964 15.515zM805.236 442.57v0c0 15.515 10.861 25.6 24.824 25.6s24.824-10.085 24.824-24.824v-0.776c0-15.515-10.861-24.824-24.824-24.824-13.964 0.776-24.824 10.085-24.824 24.824zM843.248 443.345v0c0 10.861-4.655 17.067-13.188 17.067s-13.188-6.206-13.188-16.291v-0.776c0-10.085 4.655-16.291 13.188-16.291s13.188 6.206 13.188 16.291zM861.867 434.036h10.861c0.776-4.655 3.103-7.758 9.309-7.758s8.533 2.327 8.533 6.206-3.103 5.43-10.085 6.982c-13.188 2.327-17.842 5.43-17.842 14.739 0 10.085 9.309 14.739 18.618 14.739 10.085 0 17.842-3.879 19.394-14.739h-10.085c-0.776 4.655-3.103 6.206-8.533 6.206-4.655 0-7.758-2.327-7.758-5.43 0-3.879 2.327-4.655 10.085-6.206 11.636-1.552 18.618-4.655 18.618-14.739s-6.982-15.515-19.394-15.515c-13.964 0-21.721 5.43-21.721 15.515z" />
<glyph unicode="&#xe93e;" glyph-name="membresia-grande" d="M203.248 446.448h-17.067v8.533h17.067v18.618h9.309v-18.618h17.067v-8.533h-17.067v-18.618h-9.309v18.618zM236.606 439.467h11.636c0.776-6.982 4.655-12.412 13.188-12.412s12.412 3.879 12.412 10.861-3.879 10.861-11.636 10.861h-5.43v8.533h4.655c7.758 0 10.861 3.879 10.861 10.085 0 5.43-3.103 9.309-10.085 9.309s-11.636-4.655-12.412-10.861h-10.861c0.776 11.636 9.309 20.17 23.273 20.17s21.721-7.758 21.721-17.842c0-7.758-4.655-12.412-10.861-14.739 7.758-1.552 13.188-6.982 13.188-16.291 0-12.412-9.309-20.17-24.824-20.17-15.515 1.552-24.048 10.085-24.824 22.497zM307.2 473.6l-13.964-10.085v10.861l15.515 10.861h10.861v-66.715h-12.412c0 0 0 55.079 0 55.079zM354.521 442.57v0c0 15.515 10.085 25.6 24.048 25.6 12.412 0 23.273-6.982 23.273-24.824v-3.103h-35.685c0-9.309 4.655-14.739 13.188-14.739 6.982 0 10.085 2.327 10.861 7.758h10.861c-1.552-10.085-10.085-15.515-22.497-15.515-13.188 0.776-24.048 10.085-24.048 24.824zM390.982 448.776c-0.776 8.533-4.655 12.412-11.636 12.412s-11.636-4.655-12.412-12.412h24.048zM411.927 467.394h11.636v-7.758c2.327 4.655 7.758 8.533 14.739 8.533 6.206 0 11.636-2.327 13.964-8.533 3.879 6.206 10.085 8.533 16.291 8.533 9.309 0 16.291-5.43 16.291-18.618v-31.030h-11.636v30.255c0 6.982-3.103 10.085-8.533 10.085s-10.861-3.879-10.861-10.861v-29.479h-11.636v30.255c0 6.982-3.103 10.085-8.533 10.085s-10.861-3.879-10.861-10.861v-29.479h-11.636l0.776 48.873zM497.261 467.394h11.636v-7.758c2.327 4.655 8.533 8.533 16.291 8.533 12.412 0 21.721-9.309 21.721-24.824v-0.776c0-15.515-9.309-24.824-21.721-24.824-7.758 0-13.188 3.879-16.291 8.533v-24.048h-11.636v65.164zM534.497 443.345v0c0 11.636-5.43 17.067-13.188 17.067s-13.188-5.43-13.188-16.291v-0.776c0-10.861 5.43-16.291 13.188-16.291 8.533 0 13.188 5.43 13.188 16.291zM556.994 490.667h11.636v-71.37h-11.636v71.37zM578.715 442.57v0c0 15.515 10.085 25.6 24.048 25.6 12.412 0 23.273-6.982 23.273-24.824v-3.103h-35.685c0-9.309 4.655-14.739 13.188-14.739 6.982 0 10.085 2.327 10.861 7.758h10.861c-1.552-10.085-10.085-15.515-22.497-15.515-13.964 0.776-24.048 10.085-24.048 24.824zM614.4 448.776c-0.776 8.533-4.655 12.412-11.636 12.412s-11.636-4.655-12.412-12.412h24.048zM633.018 432.485c0 11.636 10.861 15.515 24.824 15.515h6.206v2.327c0 6.206-2.327 10.085-8.533 10.085s-8.533-3.103-9.309-7.758h-10.861c0.776 11.636 10.085 16.291 20.945 16.291s19.394-4.655 19.394-17.842v-31.806h-10.861v5.43c-3.103-3.879-7.758-6.982-14.739-6.982-10.085 0.776-17.067 4.655-17.067 14.739zM663.273 436.364v4.655h-5.43c-8.533 0-13.964-2.327-13.964-7.758 0-3.879 2.327-6.982 7.758-6.982 6.982 0 11.636 3.879 11.636 10.085zM684.994 442.57v0c0 16.291 9.309 26.376 21.721 26.376 7.758 0 13.188-3.879 15.515-8.533v30.255h11.636v-71.37h-11.636v8.533c-2.327-4.655-8.533-9.309-16.291-9.309-12.412 0-20.945 8.533-20.945 24.048zM722.23 443.345v0c0 11.636-4.655 17.067-13.188 17.067s-13.188-5.43-13.188-16.291v-0.776c0-10.861 5.43-15.515 12.412-15.515 8.533-0.776 13.964 4.655 13.964 15.515zM743.176 442.57v0c0 15.515 10.861 25.6 24.824 25.6s24.824-10.085 24.824-24.824v-0.776c0-15.515-10.861-24.824-24.824-24.824-13.964 0.776-24.824 10.085-24.824 24.824zM781.964 443.345v0c0 10.861-4.655 17.067-13.188 17.067s-13.188-6.206-13.188-16.291v-0.776c0-10.085 4.655-16.291 13.188-16.291 7.758 0 13.188 6.206 13.188 16.291zM799.806 434.036h10.861c0.776-4.655 3.103-7.758 9.309-7.758s8.533 2.327 8.533 6.206-3.103 5.43-10.085 6.982c-13.188 2.327-17.842 5.43-17.842 14.739 0 10.085 9.309 14.739 18.618 14.739 10.085 0 17.842-3.879 19.394-14.739h-10.085c-0.776 4.655-3.103 6.206-8.533 6.206-4.655 0-7.758-2.327-7.758-5.43 0-3.879 2.327-4.655 10.085-6.206 11.636-1.552 18.618-4.655 18.618-14.739s-6.982-15.515-19.394-15.515c-13.964 0-20.945 5.43-21.721 15.515z" />
<glyph unicode="&#xe93f;" glyph-name="membresia-pequena" d="M131 449.7v1.5c0 22.8 11.4 35.7 27.4 35.7 12.2 0 19.8-6.1 21.3-17.5h-10.7c-1.5 5.3-3.8 7.6-9.9 7.6-9.1 0-14.4-7.6-15.2-22.8 3 5.3 8.4 8.4 16.7 8.4 12.9 0 22-8.4 22-21.3 0-13.7-9.1-22.8-24.3-22.8-20.5 0-27.3 13.7-27.3 31.2zM169 440.5c0 7.6-4.6 13.7-12.2 13.7s-12.9-5.3-12.9-12.9c0-9.1 5.3-13.7 12.9-13.7s12.2 5.3 12.2 12.9zM210.7 432.9c0 11.4 10.6 15.2 25.1 15.2h6.1v2.3c0 6.8-2.3 9.9-9.1 9.9-6.1 0-8.4-3-9.1-7.6h-10.7c0.8 11.4 9.9 16 20.5 16s19.8-4.6 19.8-17.5v-31.9h-11.4v6.1c-3-3.8-7.6-6.8-15.2-6.8-8.4-0.1-16 4.5-16 14.3zM241.9 436.7v4.6h-6.1c-8.4 0-13.7-2.3-13.7-7.6 0-3.8 2.3-6.8 7.6-6.8 6.9 0 12.2 3 12.2 9.8zM298.1 473.2l-13.7-9.9v10.7l15.2 10.6h11.4v-66.1h-12.9v54.7zM324.7 451.2v3c0 19.8 11.4 32.7 28.1 32.7s27.4-12.2 27.4-31.9v-3c0-19.8-10.6-32.7-27.4-32.7-16.7-0.8-28.1 11.4-28.1 31.9zM368 451.2v3c0 14.4-5.3 22.8-15.2 22.8s-15.2-7.6-15.2-22.8v-3c0-15.2 6.1-22.8 16-22.8s14.4 7.6 14.4 22.8zM410.6 442.8v0c0 16 10.6 25.8 24.3 25.8 12.2 0 22.8-6.8 22.8-24.3v-3h-35.7c0-9.1 5.3-14.4 13.7-14.4 6.8 0 10.6 3 11.4 7.6h10.6c-1.5-9.9-9.9-16-22-16-14.5 0-25.1 9.1-25.1 24.3zM446.3 448.9c-0.8 8.4-4.6 12.2-12.2 12.2-6.8 0-11.4-4.6-12.2-12.2h24.4zM467.6 467.9h11.4v-7.6c2.3 4.6 7.6 8.4 14.4 8.4 6.1 0 11.4-3 13.7-8.4 3.8 6.1 10.6 8.4 16.7 8.4 9.1 0 16-5.3 16-19v-30.4h-11.4v29.6c0 6.8-3 9.9-8.4 9.9s-10.6-3.8-10.6-11.4v-28.9h-11.4v29.6c0 6.8-3 9.9-8.4 9.9s-10.6-3.8-10.6-11.4v-28.9h-11.4c0 0 0 50.2 0 50.2zM552.6 467.9h11.4v-7.6c3 4.6 8.4 9.1 16 9.1 12.2 0 21.3-9.1 21.3-24.3v-0.8c0-16-9.1-25.1-21.3-25.1-7.6 0-12.9 3.8-16 8.4v-24.3h-11.4v64.6zM589.9 443.6v0c0 11.4-5.3 16.7-12.9 16.7s-13.7-5.3-13.7-16v-0.8c0-10.6 5.3-16 13.7-16 8.3 0.1 12.9 5.4 12.9 16.1zM611.9 490.7h11.4v-70.7h-11.4v70.7zM633.2 442.8v0c0 16 10.6 25.8 24.3 25.8 12.2 0 22.8-6.8 22.8-24.3v-3h-35.7c0-9.1 5.3-14.4 13.7-14.4 6.8 0 10.6 3 11.4 7.6h10.6c-1.5-9.9-9.9-16-22-16-14.5 0-25.1 9.1-25.1 24.3zM668.9 448.9c-0.8 8.4-4.6 12.2-12.2 12.2-6.8 0-11.4-4.6-12.2-12.2h24.4zM687.1 432.9c0 11.4 10.6 15.2 25.1 15.2h6.1v2.3c0 6.8-2.3 9.9-9.1 9.9-6.1 0-8.4-3-9.1-7.6h-10.6c0.8 11.4 9.9 16 20.5 16s19.8-4.6 19.8-17.5v-31.9h-11.4v6.1c-3-3.8-7.6-6.8-15.2-6.8-8.5-0.1-16.1 4.5-16.1 14.3zM718.3 436.7v4.6h-6.1c-8.4 0-13.7-2.3-13.7-7.6 0-3.8 2.3-6.8 7.6-6.8 6.9 0 12.2 3 12.2 9.8zM738.8 442.8v0c0 16 9.1 25.8 22 25.8 7.6 0 12.9-3.8 15.2-8.4v29.6h11.4v-70.7h-11.4v8.4c-2.3-4.6-9.1-9.1-16-9.1-12.1 0.1-21.2 8.5-21.2 24.4zM776.8 443.6v0c0 11.4-4.6 16.7-12.9 16.7-8.4 0-12.9-6.1-12.9-16v-1.5c0-10.6 5.3-16 12.9-16 6.8 0.8 12.9 6.1 12.9 16.8zM797.3 442.8v0c0 16 10.6 25.8 25.1 25.8s25.1-9.9 25.1-25.1v-0.8c0-15.2-10.6-25.1-25.1-25.1-14.5 0.9-25.1 10.8-25.1 25.2zM836 443.6v0c0 10.6-5.3 16.7-13.7 16.7s-13.7-6.1-13.7-16v-0.8c0-9.9 4.6-16 13.7-16 8.4-0.6 13.7 6.2 13.7 16.1zM853.5 434.5h10.6c0.8-4.6 3-7.6 9.9-7.6 6.1 0 8.4 2.3 8.4 6.1s-3 5.3-10.6 6.8c-12.9 2.3-17.5 5.3-17.5 14.4 0 9.9 9.1 14.4 18.2 14.4 9.9 0 17.5-3.8 19-14.4h-10.6c-0.8 4.6-3.8 6.8-8.4 6.8s-7.6-2.3-7.6-6.1c0-3.8 2.3-4.6 9.9-6.1 11.4-1.5 18.2-4.6 18.2-15.2 0-9.9-6.8-15.2-19.8-15.2-11.3 0.1-18.9 6.2-19.7 16.1z" />
<glyph unicode="&#xe940;" glyph-name="membresia-emprendedores" d="M177.648 473.6l-13.964-10.085v10.861l15.515 10.861h10.861v-66.715h-12.412v55.079zM224.97 432.485c0 11.636 10.861 15.515 24.824 15.515h6.206v2.327c0 6.206-2.327 10.085-8.533 10.085s-8.533-3.103-9.309-7.758h-10.861c0.776 11.636 10.085 16.291 20.945 16.291s19.394-4.655 19.394-17.842v-31.806h-11.636v5.43c-3.103-3.879-7.758-6.982-14.739-6.982-8.533 0.776-16.291 4.655-16.291 14.739zM256 436.364v4.655h-5.43c-8.533 0-13.964-2.327-13.964-7.758 0-3.879 2.327-6.982 7.758-6.982 6.206 0 11.636 3.879 11.636 10.085zM298.667 437.915h11.636c0.776-6.206 3.879-10.085 12.412-10.085 7.758 0 11.636 5.43 11.636 13.188s-4.655 13.188-11.636 13.188c-6.982 0-10.861-2.327-13.964-5.43h-6.206l0.776 37.236h40.339v-10.085h-31.030v-17.842c2.327 3.103 6.982 5.43 13.964 5.43 11.636 0 20.17-8.533 20.17-22.497s-10.085-23.273-24.824-23.273c-14.739 0.776-22.497 9.309-23.273 20.17zM377.794 442.57v0c0 15.515 10.085 25.6 24.048 25.6 12.412 0 23.273-6.982 23.273-24.824v-3.103h-35.685c0-9.309 4.655-14.739 13.188-14.739 6.982 0 10.085 2.327 10.861 7.758h10.861c-1.552-10.085-10.085-15.515-22.497-15.515-13.964 0.776-24.048 10.085-24.048 24.824zM413.479 448.776c-0.776 8.533-4.655 12.412-11.636 12.412s-11.636-4.655-12.412-12.412h24.048zM434.424 467.394h11.636v-7.758c2.327 4.655 7.758 8.533 14.739 8.533 6.206 0 11.636-2.327 13.964-8.533 3.879 6.206 10.085 8.533 16.291 8.533 9.309 0 16.291-5.43 16.291-18.618v-31.030h-11.636v30.255c0 6.982-3.103 10.085-8.533 10.085s-10.861-3.879-10.861-10.861v-29.479h-10.861v30.255c0 6.982-3.103 10.085-8.533 10.085s-10.861-3.879-10.861-10.861v-29.479h-11.636v48.873zM520.533 467.394h11.636v-7.758c2.327 4.655 8.533 8.533 16.291 8.533 12.412 0 21.721-9.309 21.721-24.824v-0.776c0-15.515-9.309-24.824-21.721-24.824-7.758 0-13.188 3.879-16.291 8.533v-24.048h-11.636v65.164zM557.77 443.345v0c0 11.636-5.43 17.067-13.188 17.067s-13.188-5.43-13.188-16.291v-0.776c0-10.861 5.43-16.291 13.188-16.291 8.533 0 13.188 5.43 13.188 16.291zM579.491 490.667h11.636v-71.37h-11.636v71.37zM601.212 442.57v0c0 15.515 10.085 25.6 24.048 25.6 12.412 0 23.273-6.982 23.273-24.824v-3.103h-35.685c0-9.309 4.655-14.739 13.188-14.739 6.982 0 10.085 2.327 10.861 7.758h10.861c-1.552-10.085-10.085-15.515-22.497-15.515-13.964 0.776-24.048 10.085-24.048 24.824zM636.897 448.776c-0.776 8.533-4.655 12.412-11.636 12.412s-11.636-4.655-12.412-12.412h24.048zM655.515 432.485c0 11.636 10.861 15.515 24.824 15.515h6.206v2.327c0 6.206-2.327 10.085-8.533 10.085s-8.533-3.103-9.309-7.758h-10.861c0.776 11.636 10.085 16.291 20.945 16.291s19.394-4.655 19.394-17.842v-31.806h-10.861v5.43c-3.103-3.879-7.758-6.982-14.739-6.982-10.085 0.776-17.067 4.655-17.067 14.739zM686.545 436.364v4.655h-5.43c-8.533 0-13.964-2.327-13.964-7.758 0-3.879 2.327-6.982 7.758-6.982 6.206 0 11.636 3.879 11.636 10.085zM707.491 442.57v0c0 16.291 9.309 26.376 21.721 26.376 7.758 0 13.188-3.879 15.515-8.533v30.255h11.636v-71.37h-11.636v8.533c-2.327-4.655-8.533-9.309-16.291-9.309-11.636 0-20.945 8.533-20.945 24.048zM744.727 443.345v0c0 11.636-4.655 17.067-13.188 17.067s-13.188-5.43-13.188-16.291v-0.776c0-10.861 5.43-15.515 12.412-15.515 8.533-0.776 13.964 4.655 13.964 15.515zM766.448 442.57v0c0 15.515 10.861 25.6 24.824 25.6s24.824-10.085 24.824-24.824v-0.776c0-15.515-10.861-24.824-24.824-24.824-14.739 0.776-24.824 10.085-24.824 24.824zM804.461 443.345v0c0 10.861-4.655 17.067-13.188 17.067s-13.188-6.206-13.188-16.291v-0.776c0-10.085 4.655-16.291 13.188-16.291s13.188 6.206 13.188 16.291zM822.303 434.036h10.861c0.776-4.655 3.103-7.758 9.309-7.758s8.533 2.327 8.533 6.206c0 3.879-3.103 5.43-10.085 6.982-13.188 2.327-17.842 5.43-17.842 14.739 0 10.085 9.309 14.739 17.842 14.739 10.085 0 17.842-3.879 19.394-14.739h-10.085c-0.776 4.655-3.103 6.206-8.533 6.206-4.655 0-7.758-2.327-7.758-5.43 0-3.879 2.327-4.655 10.085-6.206 11.636-1.552 18.618-4.655 18.618-14.739s-6.982-15.515-19.394-15.515c-13.188 0-20.17 5.43-20.945 15.515z" />
<glyph unicode="&#xe941;" glyph-name="check-no" d="M797.6 970h-571.2c-130.4 0-236.4-106-236.4-236.4v-571.2c0-130.4 106-236.4 236.4-236.4h571.2c130.4 0 236.4 106 236.4 236.4v571.2c0 130.4-106 236.4-236.4 236.4zM934 733.6v-571.2c0-75.2-61.2-136.4-136.4-136.4h-571.2c-75.2 0-136.4 61.2-136.4 136.4v571.2c0 75.2 61.2 136.4 136.4 136.4h571.2c75.2 0 136.4-61.2 136.4-136.4z" />
<glyph unicode="&#xe942;" glyph-name="check-yes" d="M797.6 970h-571.2c-130.4 0-236.4-106-236.4-236.4v-571.2c0-130.4 106-236.4 236.4-236.4h571.2c130.4 0 236.4 106 236.4 236.4v571.2c0 130.4-106 236.4-236.4 236.4zM934 733.6v-571.2c0-75.2-61.2-136.4-136.4-136.4h-571.2c-75.2 0-136.4 61.2-136.4 136.4v571.2c0 75.2 61.2 136.4 136.4 136.4h571.2c75.2 0 136.4-61.2 136.4-136.4zM752 658c-13.4 0-26-5.2-35.4-14.6l-284.6-284.6-124.6 124.6c-19.4 19.4-51.2 19.4-70.8 0-9.4-9.4-14.6-22-14.6-35.4s5.2-26 14.6-35.4l160-160c9.4-9.4 22-14.6 35.4-14.6s26 5.2 35.4 14.6l320 320c9.4 9.4 14.6 22 14.6 35.4s-5.2 26-14.6 35.4c-9.4 9.4-22 14.6-35.4 14.6z" />
<glyph unicode="&#xe943;" glyph-name="dom" d="M92.8 585.6h73.6c96 0 137.6-57.6 137.6-134.4v-3.2c0-76.8-44.8-137.6-140.8-137.6h-70.4v275.2zM163.2 339.2c70.4 0 105.6 41.6 105.6 108.8v3.2c0 64-32 108.8-105.6 108.8h-38.4v-220.8h38.4zM345.6 444.8v0c0 80 54.4 140.8 134.4 140.8s134.4-60.8 134.4-137.6v0c0-76.8-54.4-140.8-134.4-140.8-76.8 0-134.4 60.8-134.4 137.6zM582.4 448v0c0 64-35.2 115.2-99.2 115.2s-99.2-48-99.2-112v-3.2c0-67.2 44.8-112 102.4-112s96 44.8 96 112zM672 585.6h48l86.4-214.4 83.2 214.4h44.8v-275.2h-32v230.4l-89.6-230.4h-9.6l-92.8 230.4v-230.4h-32v275.2z" />
<glyph unicode="&#xe944;" glyph-name="x90-mo" d="M217.6 396.8l-76.8 108.8h41.6l54.4-83.2 54.4 83.2h38.4l-73.6-105.6 83.2-118.4h-41.6l-60.8 89.6-60.8-89.6h-38.4l80 115.2zM377.6 358.4h35.2c6.4-28.8 25.6-48 64-48 48 0 76.8 41.6 80 121.6-16-25.6-44.8-41.6-80-41.6-60.8 0-102.4 41.6-102.4 102.4s41.6 102.4 105.6 102.4c73.6 0 112-48 112-137.6v-19.2c0-102.4-41.6-160-115.2-160-57.6 0-89.6 28.8-99.2 80zM553.6 486.4c0 51.2-28.8 80-70.4 80s-67.2-28.8-67.2-73.6c0-44.8 25.6-73.6 67.2-73.6s70.4 25.6 70.4 67.2zM646.4 425.6v16c0 89.6 44.8 150.4 121.6 150.4s121.6-60.8 121.6-147.2v-16c0-89.6-44.8-150.4-118.4-150.4-76.8 0-124.8 57.6-124.8 147.2zM848 428.8v16c0 70.4-28.8 118.4-83.2 118.4-51.2 0-83.2-41.6-83.2-118.4v-16c0-76.8 32-118.4 83.2-118.4 57.6-3.2 83.2 38.4 83.2 118.4z" />
<glyph unicode="&#xe945;" glyph-name="lun" d="M176 585.6h32v-246.4h124.8v-28.8h-160v275.2zM371.2 412.8v172.8h32v-169.6c0-57.6 19.2-80 67.2-80 44.8 0 70.4 19.2 70.4 86.4v166.4h32v-172.8c0-67.2-32-108.8-105.6-108.8-60.8 3.2-96 38.4-96 105.6zM640 585.6h44.8l134.4-227.2v227.2h32v-275.2h-38.4l-140.8 236.8v-236.8h-32v275.2z" />
<glyph unicode="&#xe946;" glyph-name="mar" d="M121.6 585.6h48l86.4-214.4 83.2 214.4h44.8v-275.2h-32v230.4l-96-230.4h-9.6l-92.8 230.4v-230.4h-32v275.2zM524.8 585.6h44.8l92.8-275.2h-32l-25.6 80h-112l-25.6-80h-32l89.6 275.2zM496 416h96l-48 140.8-48-140.8zM707.2 585.6h83.2c51.2 0 96-22.4 96-76.8v0c0-44.8-28.8-67.2-67.2-73.6l83.2-121.6h-38.4l-83.2 118.4h-41.6v-118.4h-32v272zM793.6 457.6c38.4 0 60.8 16 60.8 51.2v0c0 38.4-22.4 48-60.8 48h-51.2v-102.4h51.2z" />
<glyph unicode="&#xe947;" glyph-name="mie" d="M211.2 588.8h44.8l86.4-214.4 83.2 214.4h44.8v-275.2h-32v230.4l-89.6-230.4h-9.6l-96 230.4v-230.4h-32v275.2zM540.8 588.8h32v-275.2h-32v275.2zM646.4 588.8h160v-28.8h-128v-92.8h102.4v-28.8h-102.4v-99.2h134.4v-28.8h-166.4v278.4zM736 659.2h38.4l-35.2-51.2h-22.4l19.2 51.2z" />
<glyph unicode="&#xe948;" glyph-name="jue" d="M204.8 316.8v28.8c9.6-3.2 19.2-6.4 35.2-6.4 28.8 0 44.8 16 44.8 51.2v198.4h32v-198.4c0-54.4-35.2-76.8-76.8-76.8-19.2-3.2-28.8 0-35.2 3.2zM384 412.8v172.8h32v-169.6c0-57.6 19.2-80 67.2-80 44.8 0 70.4 19.2 70.4 86.4v166.4h32v-172.8c0-67.2-32-108.8-105.6-108.8-60.8 3.2-96 38.4-96 105.6zM652.8 585.6h160v-28.8h-128v-92.8h102.4v-28.8h-102.4v-99.2h134.4v-28.8h-166.4v278.4z" />
<glyph unicode="&#xe949;" glyph-name="vie" d="M236.8 585.6h32l83.2-243.2 83.2 243.2h32l-96-275.2h-38.4l-96 275.2zM515.2 585.6h32v-275.2h-32v275.2zM617.6 585.6h160v-28.8h-128v-92.8h102.4v-28.8h-102.4v-99.2h134.4v-28.8h-166.4v278.4z" />
<glyph unicode="&#xe94a;" glyph-name="bb-cw3" d="M115.2 531.2h28.8l41.6-179.2 51.2 182.4h19.2l57.6-182.4 44.8 182.4h25.6l-57.6-224h-25.6l-51.2 176-51.2-176h-25.6l-57.6 220.8zM412.8 531.2h131.2v-22.4h-102.4v-76.8h83.2v-22.4h-83.2v-80h108.8v-22.4h-137.6c0 0 0 224 0 224zM582.4 531.2h131.2v-22.4h-105.6v-76.8h83.2v-22.4h-83.2v-80h108.8v-22.4h-137.6v224c0 0 3.2 0 3.2 0zM748.8 531.2h28.8v-108.8l99.2 108.8h32l-99.2-108.8 105.6-115.2h-32l-105.6 108.8v-108.8h-28.8v224zM48 688v0c0 67.2 44.8 115.2 105.6 115.2 44.8 0 86.4-25.6 89.6-73.6h-28.8c-6.4 35.2-25.6 51.2-64 51.2-44.8 0-76.8-35.2-76.8-92.8v-3.2c0-57.6 28.8-89.6 76.8-89.6 35.2 0 60.8 19.2 67.2 54.4h25.6c-6.4-48-41.6-73.6-92.8-73.6-64 0-102.4 44.8-102.4 112zM332.8 675.2l-76.8 124.8h32l57.6-102.4 57.6 102.4h25.6l-70.4-124.8v-96h-25.6v96zM464 800h67.2c41.6 0 70.4-12.8 70.4-57.6v0c0-19.2-9.6-38.4-32-48 32-6.4 44.8-25.6 44.8-54.4v0c0-41.6-28.8-60.8-73.6-60.8h-76.8v220.8zM531.2 704c32 0 44.8 12.8 44.8 38.4v0c0 25.6-16 35.2-44.8 35.2h-38.4v-73.6h38.4zM537.6 601.6c32 0 48 12.8 48 41.6v0c0 28.8-16 41.6-51.2 41.6h-44.8v-83.2h48zM656 800h128v-22.4h-102.4v-73.6h83.2v-22.4h-83.2v-80h108.8v-22.4h-134.4v220.8zM832 800h67.2c41.6 0 76.8-16 76.8-60.8v0c0-35.2-25.6-54.4-54.4-60.8l67.2-99.2h-28.8l-67.2 96h-35.2v-96h-25.6v220.8zM899.2 697.6c32 0 48 12.8 48 41.6v0c0 28.8-19.2 41.6-48 41.6h-41.6v-83.2h41.6zM249.6 220.8h44.8c28.8 0 54.4-12.8 54.4-44.8v0c0-32-25.6-44.8-54.4-44.8h-25.6v-64h-19.2v153.6zM294.4 144c22.4 0 35.2 9.6 35.2 32v0c0 22.4-12.8 28.8-35.2 28.8h-25.6v-60.8h25.6zM368 140.8v0c0 44.8 32 80 76.8 80s76.8-35.2 76.8-76.8v-3.2c0-44.8-28.8-80-76.8-80-44.8 3.2-76.8 38.4-76.8 80zM499.2 144v0c0 35.2-19.2 64-57.6 64-35.2 0-57.6-25.6-57.6-64v-3.2c0-38.4 25.6-64 57.6-64 38.4 3.2 57.6 28.8 57.6 67.2zM540.8 112h19.2c3.2-19.2 9.6-35.2 41.6-35.2 19.2 0 35.2 12.8 35.2 28.8s-9.6 25.6-38.4 28.8c-32 6.4-51.2 16-51.2 41.6 0 22.4 19.2 41.6 51.2 41.6s51.2-16 54.4-41.6h-16c-3.2 19.2-16 28.8-35.2 28.8-22.4 0-32-9.6-32-25.6s6.4-22.4 38.4-28.8c35.2-6.4 51.2-16 51.2-44.8 0-25.6-22.4-44.8-54.4-44.8-48 3.2-60.8 25.6-64 51.2zM675.2 76.8c0 6.4 6.4 12.8 12.8 12.8s12.8-6.4 12.8-12.8c0-6.4-6.4-12.8-12.8-12.8s-12.8 6.4-12.8 12.8zM723.2 112h16c3.2-19.2 12.8-32 38.4-32s35.2 12.8 35.2 28.8c0 19.2-9.6 28.8-32 28.8h-12.8v16h9.6c19.2 0 28.8 9.6 28.8 25.6s-9.6 25.6-28.8 25.6c-19.2 0-32-12.8-35.2-28.8h-16c0 25.6 22.4 44.8 51.2 44.8s48-19.2 48-41.6c0-16-9.6-28.8-25.6-35.2 19.2-3.2 28.8-16 28.8-38.4 0-28.8-22.4-44.8-54.4-44.8-28.8 3.2-48 22.4-51.2 51.2z" />
<glyph unicode="&#xe94b;" glyph-name="bb-cw4" d="M115.2 531.2h28.8l41.6-179.2 51.2 182.4h19.2l57.6-182.4 44.8 182.4h25.6l-57.6-224h-25.6l-51.2 176-51.2-176h-25.6l-57.6 220.8zM412.8 531.2h131.2v-22.4h-102.4v-76.8h83.2v-22.4h-83.2v-80h108.8v-22.4h-137.6c0 0 0 224 0 224zM582.4 531.2h131.2v-22.4h-105.6v-76.8h83.2v-22.4h-83.2v-80h108.8v-22.4h-137.6v224c0 0 3.2 0 3.2 0zM748.8 531.2h28.8v-108.8l99.2 108.8h32l-99.2-108.8 105.6-115.2h-32l-105.6 108.8v-108.8h-28.8v224zM48 688v0c0 67.2 44.8 115.2 105.6 115.2 44.8 0 86.4-25.6 89.6-73.6h-28.8c-6.4 35.2-25.6 51.2-64 51.2-44.8 0-76.8-35.2-76.8-92.8v-3.2c0-57.6 28.8-89.6 76.8-89.6 35.2 0 60.8 19.2 67.2 54.4h25.6c-6.4-48-41.6-73.6-92.8-73.6-64 0-102.4 44.8-102.4 112zM332.8 675.2l-76.8 124.8h32l57.6-102.4 57.6 102.4h25.6l-70.4-124.8v-96h-25.6v96zM464 800h67.2c41.6 0 70.4-12.8 70.4-57.6v0c0-19.2-9.6-38.4-32-48 32-6.4 44.8-25.6 44.8-54.4v0c0-41.6-28.8-60.8-73.6-60.8h-76.8v220.8zM531.2 704c32 0 44.8 12.8 44.8 38.4v0c0 25.6-16 35.2-44.8 35.2h-38.4v-73.6h38.4zM537.6 601.6c32 0 48 12.8 48 41.6v0c0 28.8-16 41.6-51.2 41.6h-44.8v-83.2h48zM656 800h128v-22.4h-102.4v-73.6h83.2v-22.4h-83.2v-80h108.8v-22.4h-134.4v220.8zM832 800h67.2c41.6 0 76.8-16 76.8-60.8v0c0-35.2-25.6-54.4-54.4-60.8l67.2-99.2h-28.8l-67.2 96h-35.2v-96h-25.6v220.8zM899.2 697.6c32 0 48 12.8 48 41.6v0c0 28.8-19.2 41.6-48 41.6h-41.6v-83.2h41.6zM249.6 220.8h44.8c28.8 0 54.4-12.8 54.4-44.8v0c0-32-25.6-44.8-54.4-44.8h-25.6v-64h-19.2v153.6zM294.4 144c22.4 0 35.2 9.6 35.2 32v0c0 22.4-12.8 28.8-35.2 28.8h-25.6v-60.8h25.6zM368 140.8v0c0 44.8 32 80 76.8 80s76.8-35.2 76.8-76.8v-3.2c0-44.8-28.8-80-76.8-80-44.8 3.2-76.8 38.4-76.8 80zM502.4 144v0c0 35.2-19.2 64-57.6 64-35.2 0-57.6-25.6-57.6-64v-3.2c0-38.4 25.6-64 57.6-64 35.2 3.2 57.6 28.8 57.6 67.2zM540.8 112h19.2c3.2-19.2 9.6-35.2 41.6-35.2 19.2 0 35.2 12.8 35.2 28.8s-9.6 25.6-38.4 28.8c-32 6.4-51.2 16-51.2 41.6 0 22.4 19.2 41.6 51.2 41.6s51.2-16 54.4-41.6h-16c-3.2 19.2-16 28.8-35.2 28.8-22.4 0-32-9.6-32-25.6s6.4-22.4 38.4-28.8c35.2-6.4 51.2-16 51.2-44.8 0-25.6-22.4-44.8-54.4-44.8-48 3.2-60.8 25.6-64 51.2zM675.2 76.8c0 6.4 6.4 12.8 12.8 12.8s12.8-6.4 12.8-12.8c0-6.4-6.4-12.8-12.8-12.8s-12.8 6.4-12.8 12.8zM796.8 99.2h-76.8v6.4l70.4 115.2h25.6v-105.6h22.4v-16h-22.4v-32h-19.2v32zM796.8 112v92.8l-54.4-92.8h54.4z" />
<glyph unicode="&#xe94c;" glyph-name="bb-lun4" d="M182.4 713.6h32v-243.2h121.6v-25.6h-153.6v268.8zM374.4 544v169.6h32v-166.4c0-57.6 19.2-76.8 64-76.8 41.6 0 67.2 16 67.2 83.2v160h32v-166.4c0-64-32-105.6-102.4-105.6-57.6 0-92.8 35.2-92.8 102.4zM636.8 713.6h41.6l131.2-224v224h32v-268.8h-38.4l-134.4 230.4v-230.4h-32c0 0 0 268.8 0 268.8zM134.4 384h57.6c38.4 0 70.4-16 70.4-57.6v0c0-41.6-32-60.8-70.4-60.8h-32v-83.2h-25.6v201.6zM195.2 284.8c28.8 0 44.8 12.8 44.8 41.6v0c0 28.8-16 38.4-44.8 38.4h-35.2v-80h35.2zM291.2 281.6v0c0 60.8 41.6 105.6 99.2 105.6s99.2-44.8 99.2-102.4v-3.2c0-57.6-38.4-102.4-99.2-102.4s-99.2 48-99.2 102.4zM464 281.6v0c0 48-25.6 83.2-73.6 83.2s-73.6-35.2-73.6-83.2v-3.2c0-48 32-83.2 73.6-83.2 44.8 6.4 73.6 38.4 73.6 86.4zM515.2 243.2h22.4c3.2-25.6 12.8-44.8 54.4-44.8 25.6 0 44.8 16 44.8 38.4s-9.6 32-48 38.4c-41.6 6.4-67.2 19.2-67.2 54.4 0 32 25.6 54.4 64 54.4 41.6 0 67.2-19.2 70.4-54.4h-22.4c-6.4 25.6-19.2 35.2-48 35.2s-41.6-12.8-41.6-32c0-19.2 6.4-28.8 48-35.2 44.8-6.4 70.4-19.2 70.4-57.6 0-35.2-28.8-60.8-70.4-60.8-54.4 0-73.6 28.8-76.8 64zM691.2 198.4c0 9.6 9.6 19.2 19.2 19.2s19.2-6.4 19.2-19.2c0-9.6-9.6-19.2-19.2-19.2-9.6 3.2-19.2 9.6-19.2 19.2zM851.2 224h-102.4v6.4l92.8 153.6h32v-140.8h28.8v-19.2h-28.8v-41.6h-25.6v41.6zM851.2 246.4v121.6l-70.4-121.6h70.4z" />
<glyph unicode="&#xe94d;" glyph-name="bb-mar3" d="M128 707.2h44.8l83.2-211.2 80 211.2h48v-268.8h-32v227.2l-89.6-227.2h-12.8l-89.6 227.2v-227.2h-32v268.8zM521.6 707.2h41.6l89.6-268.8h-32l-25.6 76.8h-112l-25.6-76.8h-32l96 268.8zM496 540.8h92.8l-44.8 140.8-48-140.8zM704 707.2h80c51.2 0 92.8-22.4 92.8-73.6v0c0-44.8-28.8-67.2-67.2-73.6l83.2-118.4h-35.2l-80 118.4h-41.6v-118.4h-32v265.6zM787.2 582.4c38.4 0 57.6 16 57.6 51.2v0c0 35.2-22.4 48-57.6 48h-51.2v-99.2c0 0 51.2 0 51.2 0zM134.4 384h57.6c38.4 0 70.4-16 70.4-57.6v0c0-41.6-32-60.8-70.4-60.8h-32v-83.2h-25.6v201.6zM195.2 284.8c28.8 0 44.8 12.8 44.8 41.6v0c0 28.8-16 38.4-44.8 38.4h-35.2v-80h35.2zM291.2 281.6v0c0 60.8 41.6 105.6 99.2 105.6s99.2-44.8 99.2-102.4v-3.2c0-57.6-38.4-102.4-99.2-102.4s-99.2 48-99.2 102.4zM464 281.6v0c0 48-25.6 83.2-73.6 83.2s-73.6-35.2-73.6-83.2v-3.2c0-48 32-83.2 73.6-83.2 44.8 6.4 73.6 38.4 73.6 86.4zM515.2 243.2h22.4c3.2-25.6 12.8-44.8 54.4-44.8 25.6 0 44.8 16 44.8 38.4s-9.6 32-48 38.4c-41.6 6.4-67.2 19.2-67.2 54.4 0 32 25.6 54.4 64 54.4 41.6 0 67.2-19.2 70.4-54.4h-22.4c-6.4 25.6-19.2 35.2-48 35.2s-41.6-12.8-41.6-32c0-19.2 6.4-28.8 48-35.2 44.8-6.4 70.4-19.2 70.4-57.6 0-35.2-28.8-60.8-70.4-60.8-54.4 0-73.6 28.8-76.8 64zM691.2 198.4c0 9.6 9.6 19.2 19.2 19.2s19.2-6.4 19.2-19.2c0-9.6-9.6-19.2-19.2-19.2-9.6 3.2-19.2 9.6-19.2 19.2zM755.2 243.2h22.4c3.2-25.6 16-41.6 48-41.6s44.8 16 44.8 38.4c0 25.6-12.8 38.4-41.6 38.4h-16v19.2h12.8c25.6 0 38.4 12.8 38.4 35.2 0 19.2-12.8 35.2-38.4 35.2s-41.6-16-44.8-38.4h-22.4c0 32 28.8 57.6 67.2 57.6s60.8-25.6 60.8-54.4c0-22.4-12.8-35.2-32-44.8 22.4-6.4 38.4-22.4 38.4-51.2 0-38.4-28.8-57.6-70.4-57.6s-67.2 28.8-67.2 64z" />
<glyph unicode="&#xe94e;" glyph-name="bb-mar4" d="M128 707.2h44.8l83.2-211.2 80 211.2h48v-268.8h-32v227.2l-89.6-227.2h-12.8l-89.6 227.2v-227.2h-32v268.8zM521.6 707.2h41.6l89.6-268.8h-32l-25.6 76.8h-112l-25.6-76.8h-32l96 268.8zM496 540.8h92.8l-44.8 140.8-48-140.8zM704 707.2h80c51.2 0 92.8-22.4 92.8-73.6v0c0-44.8-28.8-67.2-67.2-73.6l83.2-118.4h-35.2l-80 118.4h-41.6v-118.4h-32v265.6zM787.2 582.4c38.4 0 57.6 16 57.6 51.2v0c0 35.2-22.4 48-57.6 48h-51.2v-99.2c0 0 51.2 0 51.2 0zM134.4 384h57.6c38.4 0 70.4-16 70.4-57.6v0c0-41.6-32-60.8-70.4-60.8h-32v-83.2h-25.6v201.6zM195.2 284.8c28.8 0 44.8 12.8 44.8 41.6v0c0 28.8-16 38.4-44.8 38.4h-35.2v-80h35.2zM291.2 281.6v0c0 60.8 41.6 105.6 99.2 105.6s99.2-44.8 99.2-102.4v-3.2c0-57.6-38.4-102.4-99.2-102.4s-99.2 48-99.2 102.4zM464 281.6v0c0 48-25.6 83.2-73.6 83.2s-73.6-35.2-73.6-83.2v-3.2c0-48 32-83.2 73.6-83.2 44.8 6.4 73.6 38.4 73.6 86.4zM515.2 243.2h22.4c3.2-25.6 12.8-44.8 54.4-44.8 25.6 0 44.8 16 44.8 38.4s-9.6 32-48 38.4c-41.6 6.4-67.2 19.2-67.2 54.4 0 32 25.6 54.4 64 54.4 41.6 0 67.2-19.2 70.4-54.4h-22.4c-6.4 25.6-19.2 35.2-48 35.2s-41.6-12.8-41.6-32c0-19.2 6.4-28.8 48-35.2 44.8-6.4 70.4-19.2 70.4-57.6 0-35.2-28.8-60.8-70.4-60.8-54.4 0-73.6 28.8-76.8 64zM691.2 198.4c0 9.6 9.6 19.2 19.2 19.2s19.2-6.4 19.2-19.2c0-9.6-9.6-19.2-19.2-19.2-9.6 3.2-19.2 9.6-19.2 19.2zM851.2 224h-102.4v6.4l92.8 153.6h32v-140.8h28.8v-19.2h-28.8v-41.6h-25.6v41.6zM851.2 246.4v121.6l-70.4-121.6h70.4z" />
<glyph unicode="&#xe94f;" glyph-name="bb-mie3" d="M134.4 384h57.6c38.4 0 70.4-16 70.4-57.6v0c0-41.6-32-60.8-70.4-60.8h-32v-83.2h-25.6v201.6zM195.2 284.8c28.8 0 44.8 12.8 44.8 41.6v0c0 28.8-16 38.4-44.8 38.4h-35.2v-80h35.2zM291.2 281.6v0c0 60.8 41.6 105.6 99.2 105.6s99.2-44.8 99.2-102.4v-3.2c0-57.6-38.4-102.4-99.2-102.4s-99.2 48-99.2 102.4zM464 281.6v0c0 48-25.6 83.2-73.6 83.2s-73.6-35.2-73.6-83.2v-3.2c0-48 32-83.2 73.6-83.2 44.8 6.4 73.6 38.4 73.6 86.4zM515.2 243.2h22.4c3.2-25.6 12.8-44.8 54.4-44.8 25.6 0 44.8 16 44.8 38.4s-9.6 32-48 38.4c-41.6 6.4-67.2 19.2-67.2 54.4 0 32 25.6 54.4 64 54.4 41.6 0 67.2-19.2 70.4-54.4h-22.4c-6.4 25.6-19.2 35.2-48 35.2s-41.6-12.8-41.6-32c0-19.2 6.4-28.8 48-35.2 44.8-6.4 70.4-19.2 70.4-57.6 0-35.2-28.8-60.8-70.4-60.8-54.4 0-73.6 28.8-76.8 64zM691.2 198.4c0 9.6 9.6 19.2 19.2 19.2s19.2-6.4 19.2-19.2c0-9.6-9.6-19.2-19.2-19.2-9.6 3.2-19.2 9.6-19.2 19.2zM755.2 243.2h22.4c3.2-25.6 16-41.6 48-41.6s44.8 16 44.8 38.4c0 25.6-12.8 38.4-41.6 38.4h-16v19.2h12.8c25.6 0 38.4 12.8 38.4 35.2 0 19.2-12.8 35.2-38.4 35.2s-41.6-16-44.8-38.4h-22.4c0 32 28.8 57.6 67.2 57.6s60.8-25.6 60.8-54.4c0-22.4-12.8-35.2-32-44.8 22.4-6.4 38.4-22.4 38.4-51.2 0-38.4-28.8-57.6-70.4-57.6s-67.2 28.8-67.2 64zM240 700.8h48l83.2-208 80 208h44.8v-268.8h-32v227.2l-89.6-227.2h-9.6l-92.8 227.2v-227.2h-32v268.8zM566.4 700.8h32v-268.8h-32v268.8zM668.8 700.8h156.8v-25.6h-124.8v-89.6h99.2v-25.6h-99.2v-96h131.2v-25.6h-163.2v262.4zM755.2 771.2h38.4l-38.4-48h-19.2l19.2 48z" />
<glyph unicode="&#xe950;" glyph-name="bb-mie4" d="M134.4 384h57.6c38.4 0 70.4-16 70.4-57.6v0c0-41.6-32-60.8-70.4-60.8h-32v-83.2h-25.6v201.6zM195.2 284.8c28.8 0 44.8 12.8 44.8 41.6v0c0 28.8-16 38.4-44.8 38.4h-35.2v-80h35.2zM291.2 281.6v0c0 60.8 41.6 105.6 99.2 105.6s99.2-44.8 99.2-102.4v-3.2c0-57.6-38.4-102.4-99.2-102.4s-99.2 48-99.2 102.4zM464 281.6v0c0 48-25.6 83.2-73.6 83.2s-73.6-35.2-73.6-83.2v-3.2c0-48 32-83.2 73.6-83.2 44.8 6.4 73.6 38.4 73.6 86.4zM515.2 243.2h22.4c3.2-25.6 12.8-44.8 54.4-44.8 25.6 0 44.8 16 44.8 38.4s-9.6 32-48 38.4c-41.6 6.4-67.2 19.2-67.2 54.4 0 32 25.6 54.4 64 54.4 41.6 0 67.2-19.2 70.4-54.4h-22.4c-6.4 25.6-19.2 35.2-48 35.2s-41.6-12.8-41.6-32c0-19.2 6.4-28.8 48-35.2 44.8-6.4 70.4-19.2 70.4-57.6 0-35.2-28.8-60.8-70.4-60.8-54.4 0-73.6 28.8-76.8 64zM691.2 198.4c0 9.6 9.6 19.2 19.2 19.2s19.2-6.4 19.2-19.2c0-9.6-9.6-19.2-19.2-19.2-9.6 3.2-19.2 9.6-19.2 19.2zM851.2 224h-102.4v6.4l92.8 153.6h32v-140.8h28.8v-19.2h-28.8v-41.6h-25.6v41.6zM851.2 246.4v121.6l-70.4-121.6h70.4zM240 700.8h48l83.2-208 80 208h44.8v-268.8h-32v227.2l-89.6-227.2h-9.6l-92.8 227.2v-227.2h-32v268.8zM566.4 700.8h32v-268.8h-32v268.8zM668.8 700.8h156.8v-25.6h-124.8v-89.6h99.2v-25.6h-99.2v-96h131.2v-25.6h-163.2v262.4zM755.2 771.2h38.4l-38.4-48h-19.2l19.2 48z" />
<glyph unicode="&#xe951;" glyph-name="cat_autosmotos" d="M435.2 448c0-44.8 35.2-80 80-80s80 35.2 80 80c0 44.8-35.2 80-80 80-41.6-3.2-80-38.4-80-80zM409.6 662.4l64-108.8 9.6 3.2c22.4 6.4 41.6 6.4 64 0l9.6-3.2 64 108.8-12.8 6.4c-57.6 22.4-124.8 22.4-182.4 0l-16-6.4zM409.6 230.4l12.8-6.4c28.8-12.8 60.8-19.2 92.8-19.2s64 6.4 92.8 19.2l12.8 6.4-64 108.8-9.6-3.2c-22.4-6.4-41.6-6.4-64 0l-9.6 3.2-64-108.8zM662.4 256c51.2 38.4 83.2 96 92.8 160l3.2 12.8h-128l-3.2-9.6c-6.4-22.4-16-41.6-32-54.4l-6.4-6.4 64-108.8 9.6 6.4zM755.2 480c-9.6 64-41.6 118.4-92.8 160l-12.8 9.6-64-108.8 6.4-6.4c16-16 25.6-35.2 32-54.4l3.2-9.6h128v9.6zM368 636.8c-51.2-38.4-83.2-96-92.8-160l-3.2-12.8h128l3.2 9.6c6.4 22.4 16 41.6 32 54.4l6.4 6.4-64 108.8-9.6-6.4zM278.4 416c9.6-64 41.6-118.4 92.8-160l12.8-9.6 64 108.8-6.4 6.4c-16 16-25.6 35.2-32 54.4l-3.2 9.6h-128v-9.6zM515.2 172.8c-150.4 0-275.2 124.8-275.2 275.2s124.8 275.2 275.2 275.2c153.6 0 275.2-124.8 275.2-275.2s-121.6-275.2-275.2-275.2zM227.2 844.8c0 9.6 3.2 16 9.6 19.2l54.4 32c9.6 6.4 16 3.2 22.4 0l73.6-64h6.4c12.8 3.2 22.4 6.4 35.2 9.6h6.4l32 92.8c3.2 6.4 9.6 12.8 16 12.8h64c6.4 0 12.8-3.2 16-12.8l32-92.8h6.4c12.8-3.2 22.4-6.4 35.2-9.6h6.4l73.6 64c6.4 6.4 12.8 6.4 19.2 3.2l54.4-32c6.4-3.2 9.6-12.8 9.6-19.2l-19.2-96 6.4-3.2c9.6-9.6 19.2-16 25.6-25.6l3.2-6.4 96 19.2c6.4 0 16-3.2 19.2-9.6l32-57.6c3.2-6.4 3.2-16-3.2-19.2l-64-73.6 3.2-6.4c3.2-12.8 6.4-22.4 9.6-35.2l3.2-6.4 92.8-32c6.4-3.2 12.8-9.6 12.8-16v-64c0-6.4-3.2-12.8-12.8-16l-92.8-32-3.2-6.4c-3.2-12.8-6.4-22.4-9.6-35.2l-3.2-6.4 64-73.6c6.4-6.4 6.4-12.8 3.2-19.2l-32-57.6c-3.2-6.4-12.8-9.6-19.2-9.6l-96 19.2-3.2-6.4c-9.6-9.6-16-19.2-25.6-25.6l-6.4-3.2 19.2-96c0-6.4-3.2-16-9.6-19.2l-54.4-32c-6.4-3.2-16-3.2-19.2 3.2l-73.6 64-6.4-3.2c-12.8-3.2-22.4-6.4-35.2-9.6h-6.4l-32-92.8c-3.2-6.4-9.6-12.8-16-12.8h-64c-6.4 0-12.8 3.2-16 12.8l-32 92.8h-6.4c-12.8 3.2-25.6 6.4-35.2 9.6l-6.4 3.2-73.6-64c-6.4-3.2-12.8-6.4-19.2-3.2l-54.4 32c-6.4 3.2-9.6 12.8-9.6 19.2l19.2 96-6.4 3.2c-9.6 9.6-19.2 16-25.6 25.6l-3.2 6.4-96-19.2c-6.4-3.2-16 3.2-19.2 9.6l-35.2 54.4c-3.2 6.4-3.2 16 3.2 19.2l64 73.6-3.2 6.4c-3.2 12.8-6.4 22.4-9.6 35.2v6.4l-92.8 32c-6.4 3.2-12.8 9.6-12.8 16v64c0 6.4 3.2 12.8 12.8 16l92.8 32v6.4c3.2 12.8 6.4 22.4 9.6 35.2l3.2 9.6-64 73.6c-3.2 6.4-6.4 12.8-3.2 19.2l32 57.6c6.4 6.4 12.8 9.6 19.2 6.4l96-19.2 3.2 6.4c9.6 9.6 19.2 19.2 28.8 25.6l6.4 3.2-22.4 96zM278.4 729.6c-16-12.8-32-28.8-48-48-3.2-3.2-9.6-3.2-16-3.2l-92.8 19.2-19.2-35.2 64-70.4c3.2-6.4 6.4-12.8 3.2-19.2-6.4-22.4-12.8-41.6-16-64 0-6.4-6.4-12.8-12.8-12.8l-89.6-28.8v-38.4l89.6-28.8c6.4-3.2 9.6-6.4 12.8-12.8 3.2-22.4 9.6-41.6 16-64 3.2-6.4 0-12.8-3.2-19.2l-64-70.4 19.2-35.2 92.8 19.2c6.4 0 12.8 0 16-6.4 12.8-16 28.8-32 48-48 3.2-3.2 6.4-9.6 6.4-16l-19.2-92.8 35.2-19.2 70.4 64c3.2 3.2 12.8 6.4 19.2 3.2 19.2-6.4 41.6-12.8 64-16 6.4 0 12.8-6.4 12.8-12.8l28.8-89.6h38.4l28.8 89.6c3.2 6.4 6.4 9.6 12.8 12.8 22.4 3.2 41.6 9.6 64 16 6.4 3.2 12.8 0 19.2-3.2l70.4-64 35.2 19.2-19.2 92.8c0 6.4 0 12.8 6.4 16 16 12.8 32 28.8 48 48 3.2 6.4 9.6 6.4 16 6.4l92.8-19.2 19.2 35.2-64 70.4c-3.2 6.4-6.4 12.8-3.2 19.2 6.4 22.4 12.8 41.6 16 64 0 6.4 6.4 12.8 12.8 12.8l89.6 28.8v38.4l-89.6 28.8c-6.4 3.2-9.6 6.4-12.8 12.8-3.2 22.4-9.6 41.6-16 64-3.2 6.4 0 12.8 3.2 19.2l64 70.4-19.2 35.2-92.8-19.2c-6.4 0-12.8 0-16 6.4-12.8 16-28.8 32-48 48-6.4 3.2-6.4 9.6-6.4 16l19.2 92.8-35.2 19.2-70.4-64c-3.2-3.2-12.8-6.4-19.2-3.2-19.2 6.4-41.6 12.8-64 16-6.4 0-12.8 6.4-12.8 12.8l-28.8 89.6h-38.4l-28.8-89.6c-3.2-6.4-6.4-9.6-12.8-12.8-22.4-3.2-41.6-9.6-64-16-6.4-3.2-12.8 0-19.2 3.2l-70.4 64-35.2-19.2 19.2-92.8c0-6.4 0-12.8-6.4-19.2z" />
<glyph unicode="&#xe952;" glyph-name="cat_salud" d="M1024 444.8v-259.2c0-96-76.8-172.8-169.6-172.8h-681.6c-96 0-172.8 76.8-172.8 172.8v259.2c0 44.8 32 83.2 76.8 89.6h3.2v105.6c0 12.8 9.6 19.2 19.2 19.2h28.8v3.2c12.8 73.6 76.8 192 150.4 192h204.8c38.4 0 76.8 19.2 102.4 51.2l12.8 19.2c3.2 6.4 9.6 9.6 19.2 9.6 6.4 0 12.8-3.2 16-9.6 22.4-41.6 64-67.2 112-67.2 76.8 0 137.6-118.4 150.4-192v-3.2h25.6c12.8 0 19.2-9.6 19.2-19.2v-105.6h3.2c48-9.6 80-48 80-92.8zM982.4 182.4v259.2c0 25.6-22.4 48-48 48h-304c-12.8 0-19.2 9.6-19.2 19.2 0 12.8 9.6 19.2 19.2 19.2h272v83.2h-777.6v-83.2h272c12.8 0 19.2-9.6 19.2-19.2 0-12.8-9.6-19.2-19.2-19.2h-307.2c-25.6 0-48-22.4-48-48v-259.2c0-70.4 57.6-131.2 131.2-131.2h681.6c70.4 3.2 128 60.8 128 131.2zM854.4 659.2l-3.2 6.4c-12.8 51.2-57.6 150.4-108.8 150.4-48 0-96 22.4-128 57.6l-3.2 3.2-3.2-3.2c-32-35.2-76.8-57.6-128-57.6h-201.6c-51.2 0-96-99.2-108.8-150.4v-6.4h684.8zM512 403.2c70.4 0 128-57.6 128-128s-57.6-128-128-128-128 57.6-128 128 57.6 128 128 128zM512 185.6c48 0 86.4 38.4 86.4 86.4s-38.4 86.4-86.4 86.4c-48 0-86.4-38.4-86.4-86.4s38.4-86.4 86.4-86.4z" />
<glyph unicode="&#xe953;" glyph-name="cat_super" d="M617.6 278.4h-214.4c-25.6 0-44.8-19.2-44.8-44.8v-51.2c0-25.6 19.2-44.8 44.8-44.8h214.4c25.6 0 44.8 19.2 44.8 44.8v51.2c0 25.6-19.2 44.8-44.8 44.8zM627.2 182.4c0-3.2-3.2-6.4-6.4-6.4h-214.4c-3.2 0-6.4 3.2-6.4 6.4v51.2c0 3.2 3.2 6.4 6.4 6.4h214.4c3.2 0 6.4-3.2 6.4-6.4v-51.2zM857.6 438.4v67.2c0 44.8-38.4 102.4-73.6 124.8-12.8 9.6-22.4 25.6-25.6 41.6v224c0 9.6 0 16-6.4 22.4s-16 12.8-25.6 12.8h-115.2c-16 0-28.8-12.8-28.8-28.8v-233.6c0-16-9.6-32-22.4-41.6-25.6-16-54.4-51.2-67.2-86.4v147.2c0 80-70.4 147.2-156.8 147.2s-156.8-64-156.8-147.2v-560c0-99.2 76.8-163.2 192-163.2h272c54.4 0 105.6 12.8 144 41.6 44.8 32 67.2 73.6 67.2 128l3.2 304c0-3.2 0-3.2 0 0v0zM620.8 892.8h99.2v-172.8h-99.2v172.8zM524.8 502.4c0 28.8 32 76.8 54.4 92.8 25.6 16 41.6 44.8 41.6 73.6v12.8h99.2v-12.8c3.2-28.8 19.2-57.6 41.6-70.4 25.6-16 54.4-60.8 54.4-92.8v-19.2c-9.6 3.2-22.4 3.2-32-3.2v0c-9.6-3.2-12.8-12.8-19.2-32l-16 41.6-6.4 3.2c-12.8 6.4-28.8 6.4-41.6 0l-48-16c-9.6-3.2-12.8-12.8-19.2-28.8l-16 41.6-6.4 3.2c-12.8 6.4-28.8 6.4-41.6 0l-32-16h-3.2c-3.2-3.2-6.4-6.4-12.8-12.8l3.2 35.2zM220.8 512l144 64-16 35.2-131.2-57.6v60.8l134.4 60.8-16 35.2-115.2-54.4v32c0 60.8 51.2 108.8 118.4 108.8s118.4-48 118.4-108.8v-195.2h-3.2c-12.8 6.4-28.8 6.4-41.6 0l-32-16c-9.6-3.2-12.8-12.8-19.2-32l-16 41.6-6.4 3.2c-12.8 6.4-28.8 6.4-41.6 0l-9.6 3.2-16-41.6c-6.4 16-9.6 25.6-19.2 32-9.6 3.2-22.4 6.4-32 3.2v25.6zM819.2 131.2c0-41.6-16-73.6-51.2-96-32-22.4-73.6-35.2-121.6-35.2h-272c-73.6 0-153.6 32-153.6 128v310.4c0 6.4 3.2 6.4 3.2 9.6 0 0 3.2 3.2 6.4 3.2 0 0 0 0 0 0 3.2-6.4 3.2-16 6.4-22.4 6.4-25.6 9.6-41.6 22.4-44.8 6.4-3.2 12.8-3.2 16 0h9.6l28.8 76.8 28.8-76.8 6.4-3.2c6.4-3.2 12.8-3.2 16 0 12.8 6.4 16 19.2 22.4 44.8 3.2 6.4 3.2 19.2 6.4 22.4l25.6 12.8c3.2 0 3.2 0 6.4 0l54.4-73.6c3.2-6.4 9.6-9.6 16-9.6 12.8-3.2 22.4 9.6 25.6 16s9.6 12.8 12.8 22.4c6.4 9.6 12.8 25.6 19.2 28.8l28.8 12.8c0 0 3.2 0 3.2 0l32-76.8 6.4-3.2c6.4-3.2 12.8-3.2 16 0 12.8 6.4 16 19.2 22.4 44.8 3.2 6.4 3.2 16 6.4 22.4l41.6 12.8c0 0 3.2 0 3.2 0l32-80 6.4-3.2c6.4-3.2 12.8-3.2 16 0 12.8 6.4 16 19.2 22.4 44.8 3.2 6.4 3.2 16 6.4 22.4 3.2 0 6.4 0 6.4-3.2 3.2 0 6.4-3.2 6.4-12.8v-294.4z" />
<glyph unicode="&#xe954;" glyph-name="x5-mo" d="M393.6 416l-48 70.4h28.8l28.8-38.4 9.6-16 9.6 16 28.8 38.4h25.6l-54.4-70.4 51.2-73.6h-28.8l-28.8 41.6-9.6 16-9.6-16-32-44.8h-25.6l54.4 76.8zM582.4 361.6c16 0 28.8 3.2 38.4 12.8s16 22.4 16 38.4c0 16-6.4 28.8-16 35.2s-22.4 12.8-41.6 12.8l-28.8-3.2v115.2h105.6v-25.6h-80v-67.2h16c22.4 0 38.4-6.4 51.2-19.2s19.2-28.8 19.2-51.2c0-12.8-3.2-22.4-6.4-32s-9.6-19.2-16-25.6c-6.4-6.4-16-12.8-25.6-16s-19.2-6.4-32-6.4c-9.6 0-19.2 0-25.6 3.2-6.4 0-12.8 3.2-19.2 6.4l6.4 22.4c6.4-3.2 9.6-3.2 16-3.2 3.2 3.2 12.8 3.2 22.4 3.2z" />
<glyph unicode="&#xe955;" glyph-name="x800-mo" d="M256 416l-48 70.4h28.8l28.8-38.4 9.6-16 9.6 16 28.8 38.4h25.6l-54.4-70.4 51.2-73.6h-28.8l-32 44.8-9.6 16-6.4-19.2-32-44.8h-22.4l51.2 76.8zM380.8 396.8c0 12.8 3.2 25.6 9.6 38.4s19.2 19.2 35.2 28.8c-6.4 3.2-9.6 6.4-16 9.6s-9.6 6.4-12.8 12.8c-3.2 3.2-6.4 9.6-9.6 16s-3.2 12.8-3.2 19.2c0 9.6 0 16 3.2 22.4s6.4 12.8 12.8 19.2c6.4 6.4 12.8 9.6 19.2 12.8s16 3.2 25.6 3.2 19.2 0 25.6-3.2 12.8-6.4 19.2-9.6 9.6-9.6 12.8-16 3.2-12.8 3.2-22.4c0-12.8-3.2-25.6-9.6-35.2s-16-19.2-28.8-28.8c6.4-3.2 12.8-6.4 16-9.6s9.6-9.6 12.8-12.8c3.2-6.4 6.4-9.6 9.6-16s3.2-12.8 3.2-22.4c0-9.6 0-19.2-3.2-25.6s-6.4-16-12.8-19.2c-6.4-6.4-12.8-9.6-22.4-12.8s-19.2-6.4-28.8-6.4c-9.6 0-19.2 0-28.8 3.2s-16 6.4-22.4 12.8-9.6 12.8-12.8 19.2 3.2 16 3.2 22.4zM492.8 400c0 6.4 0 12.8-3.2 19.2s-6.4 9.6-9.6 12.8c-3.2 3.2-9.6 6.4-16 12.8-6.4 3.2-12.8 6.4-16 9.6-12.8-6.4-22.4-16-28.8-25.6s-9.6-19.2-9.6-25.6c0-6.4 0-9.6 3.2-16s3.2-9.6 9.6-12.8 9.6-6.4 12.8-9.6 12.8-3.2 19.2-3.2 9.6 0 16 3.2 9.6 3.2 12.8 6.4 6.4 6.4 9.6 12.8 0 9.6 0 16zM412.8 524.8c0-6.4 0-12.8 3.2-16 3.2-6.4 6.4-9.6 9.6-12.8s9.6-6.4 12.8-9.6c6.4-3.2 9.6-6.4 16-9.6 9.6 6.4 16 16 22.4 22.4s6.4 16 6.4 25.6c0 12.8-3.2 19.2-9.6 25.6s-16 9.6-25.6 9.6c-6.4 0-12.8 0-16-3.2s-9.6-3.2-12.8-6.4c0-6.4-3.2-9.6-3.2-12.8-3.2-6.4-3.2-9.6-3.2-12.8zM534.4 460.8c0 41.6 6.4 70.4 19.2 92.8 12.8 19.2 32 32 57.6 32 28.8 0 48-9.6 60.8-28.8s19.2-51.2 19.2-92.8-6.4-70.4-19.2-92.8-32-32-57.6-32-44.8 9.6-57.6 32-22.4 51.2-22.4 89.6zM560 460.8c0-16 0-28.8 3.2-38.4s6.4-22.4 9.6-32c3.2-9.6 9.6-16 16-19.2s12.8-6.4 22.4-6.4c16 0 28.8 6.4 38.4 22.4 6.4 16 12.8 41.6 12.8 73.6 0 12.8 0 28.8-3.2 38.4-3.2 12.8-3.2 22.4-9.6 32-3.2 9.6-9.6 16-16 19.2s-12.8 6.4-22.4 6.4c-16 0-28.8-6.4-38.4-22.4-6.4-16-12.8-41.6-12.8-73.6zM694.4 460.8c0 41.6 6.4 70.4 19.2 92.8 12.8 19.2 32 32 57.6 32 28.8 0 48-9.6 60.8-28.8s19.2-51.2 19.2-92.8-6.4-70.4-19.2-92.8-32-32-57.6-32-44.8 9.6-57.6 32-22.4 51.2-22.4 89.6zM720 460.8c0-16 0-28.8 3.2-38.4s6.4-22.4 9.6-32c3.2-9.6 9.6-16 16-19.2s12.8-6.4 22.4-6.4c16 0 28.8 6.4 38.4 22.4 6.4 16 12.8 41.6 12.8 73.6 0 12.8 0 28.8-3.2 38.4-3.2 12.8-3.2 22.4-9.6 32-3.2 9.6-9.6 16-16 19.2s-12.8 6.4-22.4 6.4c-16 0-28.8-6.4-38.4-22.4-6.4-16-12.8-41.6-12.8-73.6z" />
<glyph unicode="&#xe956;" glyph-name="x1-bh" d="M396.8 384l-112 163.2h64l83.2-121.6 83.2 121.6h57.6l-112-160 124.8-179.2h-64l-89.6 137.6-92.8-137.6h-64l121.6 176zM691.2 614.4l-102.4-73.6v51.2l105.6 80h51.2v-460.8h-57.6v403.2z" />
<glyph unicode="&#xe957;" glyph-name="x2-bh" d="M326.4 384l-112 163.2h64l83.2-121.6 83.2 121.6h57.6l-112-160 124.8-179.2h-64l-89.6 137.6-92.8-137.6h-64l121.6 176zM508.8 220.8l182.4 192c41.6 44.8 67.2 86.4 67.2 134.4 0 51.2-32 83.2-83.2 83.2-54.4 0-89.6-28.8-99.2-102.4h-51.2c6.4 89.6 60.8 147.2 150.4 147.2 86.4 0 140.8-51.2 140.8-131.2 0-57.6-35.2-112-92.8-169.6l-128-124.8h224v-44.8h-310.4v16z" />
<glyph unicode="&#xe958;" glyph-name="x3-bh" d="M310.4 384l-112 163.2h64l83.2-121.6 83.2 121.6h57.6l-112-160 124.8-179.2h-64l-89.6 137.6-92.8-137.6h-60.8l118.4 176zM508.8 345.6h51.2c6.4-54.4 38.4-96 112-96s105.6 35.2 105.6 89.6c0 60.8-32 89.6-99.2 89.6h-35.2v48h32c60.8 0 86.4 28.8 86.4 80 0 44.8-28.8 76.8-83.2 76.8-57.6 0-96-35.2-102.4-86.4h-48c3.2 73.6 64 134.4 150.4 134.4s137.6-57.6 137.6-121.6c0-51.2-32-83.2-73.6-102.4 54.4-12.8 89.6-51.2 89.6-115.2 0-83.2-67.2-134.4-163.2-134.4-99.2-6.4-156.8 57.6-160 137.6z" />
<glyph unicode="&#xe959;" glyph-name="x4-bh" d="M300.8 384l-112 163.2h64l83.2-121.6 83.2 121.6h57.6l-112-160 124.8-179.2h-64l-89.6 137.6-92.8-137.6h-64l121.6 176zM726.4 307.2h-230.4v19.2l211.2 345.6h73.6v-320h64v-44.8h-64v-96h-54.4v96zM726.4 352v275.2l-160-275.2h160z" />
<glyph unicode="&#xe95a;" glyph-name="x5-bh" d="M323.2 384l-112 163.2h64l83.2-121.6 83.2 121.6h57.6l-112-160 124.8-179.2h-64l-96 137.6-92.8-137.6h-57.6l121.6 176zM521.6 332.8h54.4c9.6-51.2 28.8-86.4 99.2-86.4 64 0 102.4 41.6 102.4 112 0 64-38.4 108.8-96 108.8-54.4 0-83.2-16-108.8-44.8h-19.2v249.6h259.2v-48h-214.4v-144c19.2 16 51.2 32 92.8 32 83.2 0 144-57.6 144-153.6 0-99.2-70.4-156.8-156.8-156.8-102.4 0-150.4 57.6-156.8 131.2z" />
<glyph unicode="&#xe95b;" glyph-name="x6-bh" d="M304 384l-112 163.2h64l83.2-121.6 83.2 121.6h57.6l-112-160 124.8-179.2h-64l-89.6 137.6-92.8-137.6h-60.8l118.4 176zM515.2 412.8v9.6c0 166.4 73.6 252.8 182.4 252.8 70.4 0 121.6-38.4 134.4-112h-54.4c-9.6 41.6-35.2 67.2-86.4 67.2-70.4 0-118.4-64-121.6-185.6 22.4 38.4 64 64 118.4 64 92.8 0 150.4-67.2 150.4-150.4 0-92.8-60.8-153.6-160-153.6-124.8-3.2-163.2 92.8-163.2 208zM780.8 355.2c0 67.2-41.6 108.8-102.4 108.8s-105.6-41.6-105.6-102.4c0-76.8 44.8-115.2 105.6-115.2 64 0 102.4 41.6 102.4 108.8z" />
<glyph unicode="&#xe95c;" glyph-name="x7-bh" d="M326.4 384l-112 163.2h64l83.2-121.6 83.2 121.6h57.6l-112-160 124.8-179.2h-64l-89.6 137.6-92.8-137.6h-64l121.6 176zM748.8 627.2h-233.6v44.8h304v-6.4l-172.8-454.4h-57.6l160 416z" />
<glyph unicode="&#xe95d;" glyph-name="x8-bh" d="M310.4 384l-112 163.2h64l83.2-121.6 83.2 121.6h57.6l-112-160 124.8-179.2h-64l-89.6 137.6-92.8-137.6h-64l121.6 176zM515.2 339.2c0 60.8 38.4 102.4 86.4 118.4-44.8 16-70.4 51.2-70.4 96 0 73.6 70.4 121.6 140.8 121.6s140.8-48 140.8-118.4c0-48-28.8-80-70.4-99.2 54.4-19.2 89.6-60.8 89.6-118.4 0-92.8-80-137.6-160-137.6-70.4 0-156.8 48-156.8 137.6zM777.6 342.4c0 60.8-44.8 92.8-99.2 92.8s-102.4-32-102.4-92.8c0-60.8 48-92.8 102.4-92.8s99.2 32 99.2 92.8zM761.6 556.8c0 44.8-38.4 76.8-83.2 76.8-48 0-86.4-28.8-86.4-76.8s41.6-76.8 86.4-76.8c48 0 83.2 28.8 83.2 76.8z" />
<glyph unicode="&#xe95e;" glyph-name="x9-bh" d="M307.2 384l-115.2 163.2h64l83.2-121.6 83.2 121.6h57.6l-112-160 124.8-179.2h-64l-89.6 137.6-92.8-137.6h-60.8l121.6 176zM515.2 323.2h54.4c9.6-44.8 35.2-73.6 96-73.6 73.6 0 118.4 60.8 118.4 182.4-22.4-38.4-67.2-60.8-118.4-60.8-89.6 0-150.4 64-150.4 150.4 0 92.8 60.8 153.6 160 153.6 108.8 0 166.4-73.6 166.4-208v-28.8c0-153.6-64-236.8-172.8-236.8-89.6 3.2-140.8 48-153.6 121.6zM777.6 515.2c0 76.8-44.8 118.4-105.6 118.4s-102.4-41.6-102.4-108.8c0-67.2 41.6-108.8 102.4-108.8 64 0 105.6 38.4 105.6 99.2z" />
<glyph unicode="&#xe95f;" glyph-name="x10-bh" d="M172.8 384l-112 163.2h64l83.2-121.6 80 121.6h57.6l-112-160 124.8-179.2h-64l-89.6 137.6-92.8-137.6h-57.6l118.4 176zM467.2 614.4l-102.4-73.6v51.2l108.8 80h51.2v-460.8h-57.6v403.2zM608 425.6v25.6c0 137.6 70.4 224 182.4 224 115.2 0 179.2-89.6 179.2-224v-25.6c0-134.4-64-224-179.2-224-108.8 0-182.4 89.6-182.4 224zM915.2 428.8v25.6c0 108.8-44.8 176-124.8 176s-124.8-64-124.8-179.2v-25.6c0-118.4 48-179.2 124.8-179.2 83.2 3.2 124.8 64 124.8 182.4z" />
<glyph unicode="&#xe960;" glyph-name="x11-bh" d="M284.8 384l-112 163.2h64l83.2-121.6 83.2 121.6h57.6l-112-160 124.8-179.2h-64l-89.6 137.6-92.8-137.6h-64l121.6 176zM579.2 614.4l-102.4-73.6v51.2l105.6 80h51.2v-460.8h-57.6v403.2zM803.2 614.4l-102.4-73.6v51.2l108.8 80h51.2v-460.8h-57.6v403.2z" />
<glyph unicode="&#xe961;" glyph-name="x12-bh" d="M214.4 384l-112 163.2h64l83.2-121.6 83.2 121.6h57.6l-112-160 124.8-179.2h-64l-89.6 137.6-92.8-137.6h-64l121.6 176zM508.8 614.4l-102.4-73.6v51.2l105.6 80h51.2v-460.8h-57.6v403.2zM620.8 220.8l182.4 192c41.6 44.8 67.2 86.4 67.2 134.4 0 51.2-28.8 83.2-83.2 83.2s-89.6-28.8-99.2-102.4h-48c6.4 89.6 60.8 147.2 150.4 147.2 86.4 0 140.8-51.2 140.8-131.2 0-57.6-35.2-112-92.8-169.6l-128-124.8h224v-44.8h-310.4v16z" />
<glyph unicode="&#xe962;" glyph-name="main-sponsors" d="M934.4 553.6c19.2 19.2 25.6 44.8 16 67.2-6.4 25.6-28.8 41.6-54.4 44.8l-217.6 32c-3.2 0-9.6 3.2-9.6 6.4l-99.2 198.4c-9.6 22.4-35.2 35.2-57.6 35.2-25.6 0-48-12.8-57.6-35.2l-99.2-198.4c-3.2-3.2-6.4-6.4-9.6-6.4l-217.6-32c-25.6-3.2-44.8-22.4-54.4-44.8s0-51.2 16-67.2l156.8-153.6c3.2-3.2 3.2-6.4 3.2-12.8l-38.4-217.6c-3.2-25.6 6.4-51.2 25.6-64 19.2-16 48-16 70.4-6.4l195.2 102.4c3.2 3.2 9.6 3.2 12.8 0l195.2-102.4c9.6-6.4 19.2-6.4 32-6.4s25.6 3.2 38.4 12.8c19.2 16 32 38.4 25.6 64l-38.4 217.6c0 3.2 0 9.6 3.2 12.8l163.2 153.6zM720 377.6l38.4-217.6c0-6.4-3.2-12.8-6.4-12.8s-6.4-3.2-12.8 0l-195.2 102.4c-9.6 6.4-19.2 6.4-32 6.4-9.6 0-22.4-3.2-32-6.4l-195.2-102.4c-6.4-3.2-12.8 0-12.8 0-3.2 0-6.4 6.4-6.4 12.8l38.4 217.6c3.2 22.4-3.2 44.8-19.2 57.6l-156.8 156.8c-6.4 6.4-3.2 9.6-3.2 12.8s3.2 6.4 9.6 9.6l217.6 32c22.4 3.2 41.6 16 51.2 35.2l99.2 198.4c3.2 6.4 9.6 6.4 12.8 6.4s9.6 0 12.8-6.4v0l99.2-198.4c9.6-19.2 28.8-32 51.2-35.2l217.6-32c6.4 0 9.6-6.4 9.6-9.6s3.2-9.6-3.2-12.8l-156.8-153.6c-22.4-16-28.8-38.4-25.6-60.8zM819.2 902.4c-12.8 9.6-28.8 6.4-38.4-6.4l-28.8-38.4c-9.6-12.8-6.4-28.8 6.4-38.4 3.2-3.2 9.6-6.4 16-6.4 9.6 0 16 3.2 22.4 9.6l28.8 38.4c9.6 19.2 6.4 35.2-6.4 41.6zM268.8 860.8l-28.8 38.4c-6.4 9.6-25.6 12.8-35.2 3.2-12.8-6.4-16-22.4-6.4-35.2l28.8-38.4c6.4-6.4 12.8-9.6 22.4-9.6 6.4 0 9.6 3.2 16 6.4 9.6 6.4 12.8 22.4 3.2 35.2zM108.8 348.8c-3.2 12.8-19.2 22.4-32 16l-48-12.8c-12.8-3.2-22.4-19.2-16-32 3.2-9.6 12.8-19.2 25.6-19.2 3.2 0 6.4 0 9.6 0l44.8 16c12.8 3.2 19.2 19.2 16 32zM512 54.4c-16 0-25.6-12.8-25.6-25.6v-48c0-16 12.8-25.6 25.6-25.6 16 0 25.6 12.8 25.6 25.6v48c0 16-9.6 25.6-25.6 25.6zM995.2 352l-44.8 16c-12.8 3.2-28.8-3.2-32-16s3.2-28.8 16-32l44.8-16c3.2 0 6.4 0 9.6 0 9.6 0 22.4 6.4 25.6 19.2 0 9.6-6.4 22.4-19.2 28.8z" />
<glyph unicode="&#xe963;" glyph-name="lanzamientos-exclusivos" d="M899.2 441.6l-108.8 169.6c-9.6 12.8-22.4 22.4-38.4 22.4h-480c-16 0-28.8-6.4-38.4-19.2l-108.8-169.6c-9.6-16-9.6-38.4 3.2-54.4l348.8-393.6c9.6-9.6 22.4-16 35.2-16 0 0 0 0 0 0 12.8 0 25.6 6.4 35.2 16l348.8 390.4c12.8 16 16 38.4 3.2 54.4zM729.6 592l-89.6-140.8-92.8 140.8h182.4zM601.6 435.2h-182.4l92.8 140.8 89.6-140.8zM476.8 592l-92.8-140.8-92.8 140.8h185.6zM259.2 576l92.8-140.8h-185.6l92.8 140.8zM172.8 396.8h198.4l105.6-339.2-304 339.2zM512 70.4l-99.2 326.4h201.6l-102.4-326.4zM550.4 57.6l105.6 339.2h198.4l-304-339.2zM675.2 435.2l92.8 140.8 92.8-140.8h-185.6zM70.4 435.2h-38.4c-9.6 0-19.2-9.6-19.2-19.2s9.6-19.2 19.2-19.2h38.4c9.6 0 19.2 9.6 19.2 19.2s-9.6 19.2-19.2 19.2zM992 435.2h-38.4c-9.6 0-19.2-9.6-19.2-19.2s9.6-19.2 19.2-19.2h38.4c9.6 0 19.2 9.6 19.2 19.2 3.2 9.6-6.4 19.2-19.2 19.2zM867.2 768c-6.4 6.4-19.2 6.4-28.8 0l-64-64c-6.4-6.4-6.4-19.2 0-28.8 3.2-3.2 9.6-3.2 12.8-3.2 6.4 0 9.6 0 12.8 3.2l64 64c9.6 9.6 9.6 22.4 3.2 28.8zM249.6 704l-64 64c-6.4 6.4-19.2 6.4-28.8 0-6.4-6.4-6.4-19.2 0-28.8l64-64c6.4-3.2 12.8-3.2 16-3.2s9.6 0 12.8 6.4 9.6 19.2 0 25.6zM512 915.2c-9.6 0-19.2-9.6-19.2-19.2v-128c0-9.6 9.6-19.2 19.2-19.2s19.2 9.6 19.2 19.2v128c0 12.8-6.4 19.2-19.2 19.2zM524.8 716.8c-3.2 3.2-9.6 6.4-12.8 6.4-6.4 0-9.6-3.2-12.8-6.4s-6.4-9.6-6.4-12.8c0-6.4 3.2-9.6 6.4-12.8s9.6-6.4 12.8-6.4c6.4 0 9.6 3.2 12.8 6.4s6.4 9.6 6.4 12.8c0 3.2 0 9.6-6.4 12.8z" />
<glyph unicode="&#xe964;" glyph-name="branded-content" d="M924.8 700.8l-246.4 246.4c-3.2 3.2-9.6 6.4-16 6.4h-470.4c-54.4 0-102.4-44.8-102.4-102.4v-816c3.2-54.4 48-99.2 102.4-99.2h640c54.4 0 102.4 44.8 102.4 102.4v649.6c-3.2 3.2-6.4 9.6-9.6 12.8zM684.8 883.2l176-176h-115.2c-16 0-32 6.4-41.6 16-12.8 12.8-19.2 28.8-19.2 44.8v115.2zM889.6 38.4c0-32-25.6-60.8-60.8-60.8h-636.8c-32 0-60.8 25.6-60.8 60.8v816c0 32 25.6 60.8 60.8 60.8h451.2v-147.2c0-25.6 9.6-51.2 28.8-70.4s44.8-28.8 70.4-28.8h144l3.2-630.4zM550.4 256h-9.6c-12.8 0-19.2-9.6-19.2-19.2 0-12.8 9.6-19.2 19.2-19.2h9.6c12.8 0 19.2 9.6 19.2 19.2s-9.6 19.2-19.2 19.2zM473.6 256h-201.6c-12.8 0-19.2-9.6-19.2-19.2 0-12.8 9.6-19.2 19.2-19.2h201.6c12.8 0 19.2 9.6 19.2 19.2s-6.4 19.2-19.2 19.2zM752 348.8h-480c-12.8 0-19.2-9.6-19.2-19.2 0-12.8 9.6-19.2 19.2-19.2h480c12.8 0 19.2 9.6 19.2 19.2 3.2 9.6-6.4 19.2-19.2 19.2zM752 444.8h-480c-12.8 0-19.2-9.6-19.2-19.2 0-12.8 9.6-19.2 19.2-19.2h480c12.8 0 19.2 9.6 19.2 19.2 3.2 9.6-6.4 19.2-19.2 19.2zM752 540.8h-480c-12.8 0-19.2-9.6-19.2-19.2 0-12.8 9.6-19.2 19.2-19.2h480c12.8 0 19.2 9.6 19.2 19.2s-6.4 19.2-19.2 19.2z" />
<glyph unicode="&#xe965;" glyph-name="cat_emprendedores" d="M838.4 310.4l-83.2 96v6.4c6.4 83.2 0 172.8-22.4 240-41.6 134.4-134.4 230.4-182.4 275.2-22.4 19.2-54.4 19.2-76.8 0-51.2-44.8-140.8-140.8-182.4-275.2-22.4-67.2-28.8-156.8-22.4-240v-6.4l-83.2-96c-12.8-12.8-16-32-12.8-48l32-150.4c3.2-12.8 12.8-22.4 22.4-28.8 12.8-3.2 25.6-3.2 35.2 3.2l92.8 67.2 3.2-6.4c0-3.2 3.2-3.2 3.2-6.4 9.6-16 28.8-25.6 48-25.6h204.8c16 0 32 6.4 41.6 16 3.2 3.2 3.2 3.2 6.4 6.4 0 0 3.2 3.2 3.2 3.2l3.2 6.4 6.4-3.2 86.4-64c6.4-3.2 12.8-6.4 22.4-6.4 3.2 0 9.6 0 12.8 3.2 6.4 3.2 9.6 6.4 12.8 9.6 6.4 6.4 9.6 12.8 9.6 19.2l32 150.4c3.2 22.4 0 41.6-12.8 54.4zM819.2 268.8l-32-156.8-99.2 70.4 3.2 6.4c25.6 48 44.8 99.2 54.4 156.8l3.2 16 64-73.6c0 0 3.2-3.2 3.2-3.2 3.2-3.2 3.2-6.4 3.2-9.6s0-3.2 0-6.4zM204.8 268.8c0 3.2 0 3.2 0 6.4s0 6.4 3.2 9.6c0 0 3.2 3.2 3.2 3.2l64 73.6 3.2-16c9.6-41.6 22.4-83.2 38.4-118.4 6.4-12.8 12.8-25.6 19.2-35.2l3.2-6.4-99.2-70.4-35.2 153.6zM323.2 643.2v0c41.6 128 124.8 217.6 172.8 259.2 9.6 9.6 22.4 9.6 32 0 48-41.6 134.4-131.2 172.8-259.2 19.2-64 28.8-147.2 22.4-227.2-3.2-48-12.8-92.8-28.8-137.6l-3.2-6.4h-358.4l-3.2 6.4c-16 41.6-25.6 89.6-28.8 137.6-3.2 19.2-3.2 38.4-3.2 60.8 3.2 60.8 9.6 118.4 25.6 166.4zM633.6 163.2c-3.2-6.4-12.8-9.6-19.2-9.6h-204.8c-6.4 0-16 3.2-19.2 9.6-16 19.2-28.8 41.6-38.4 67.2l-6.4 9.6h332.8l-6.4-9.6c-9.6-22.4-22.4-44.8-38.4-67.2zM512 486.4c32 0 60.8 12.8 83.2 35.2s35.2 51.2 35.2 83.2c0 32-12.8 60.8-35.2 83.2-22.4 19.2-51.2 32-83.2 32s-60.8-12.8-83.2-35.2c-22.4-22.4-35.2-51.2-35.2-83.2s12.8-60.8 35.2-83.2c22.4-19.2 51.2-32 83.2-32zM512 684.8c22.4 0 41.6-9.6 57.6-22.4 16-16 25.6-35.2 25.6-57.6 0-44.8-35.2-83.2-83.2-83.2-22.4 0-41.6 9.6-57.6 22.4-16 16-22.4 35.2-22.4 57.6s9.6 41.6 25.6 57.6c12.8 16 32 25.6 54.4 25.6zM406.4 86.4c-9.6 0-16-6.4-16-16v-54.4c0-9.6 6.4-16 16-16 3.2 0 9.6 3.2 12.8 6.4s6.4 6.4 6.4 12.8v54.4c0 3.2-9.6 12.8-19.2 12.8zM512 86.4c-9.6 0-16-6.4-16-16v-102.4c0-9.6 6.4-16 16-16 3.2 0 9.6 3.2 12.8 6.4s6.4 6.4 6.4 12.8v99.2c-3.2 6.4-9.6 16-19.2 16zM617.6 86.4c-9.6 0-16-6.4-16-16v-54.4c0-9.6 6.4-16 16-16 3.2 0 9.6 3.2 12.8 6.4s6.4 6.4 6.4 12.8v54.4c-3.2 3.2-9.6 12.8-19.2 12.8z" />
<glyph unicode="&#xe966;" glyph-name="cat_servicios" d="M505.6 355.2c163.2 0 294.4 131.2 294.4 294.4s-131.2 294.4-294.4 294.4c-163.2 0-294.4-131.2-294.4-294.4s131.2-294.4 294.4-294.4zM259.2 547.2h115.2c6.4-38.4 16-73.6 28.8-102.4 9.6-22.4 19.2-38.4 32-51.2-80 19.2-144 76.8-176 153.6zM505.6 912c25.6 0 54.4-25.6 76.8-73.6 12.8-25.6 19.2-57.6 25.6-89.6h-204.8c6.4 32 16 64 25.6 89.6 22.4 48 48 73.6 76.8 73.6zM611.2 720c3.2-22.4 3.2-48 3.2-73.6s0-51.2-3.2-73.6h-214.4c-3.2 22.4-3.2 48-3.2 73.6s0 51.2 3.2 73.6h214.4zM771.2 646.4c0-25.6-3.2-51.2-9.6-73.6h-121.6c3.2 22.4 3.2 48 3.2 73.6s0 51.2-3.2 73.6h118.4c9.6-22.4 12.8-48 12.8-73.6zM505.6 384c-25.6 0-54.4 25.6-76.8 73.6-12.8 25.6-19.2 57.6-25.6 89.6h204.8c-6.4-32-16-64-25.6-89.6-22.4-48-51.2-73.6-76.8-73.6zM368 572.8h-118.4c-6.4 22.4-9.6 48-9.6 73.6s3.2 51.2 9.6 73.6h118.4c-3.2-22.4-3.2-48-3.2-73.6 0-22.4 3.2-48 3.2-73.6zM576 390.4c12.8 12.8 22.4 32 32 51.2 12.8 28.8 22.4 64 28.8 102.4h115.2c-32-73.6-99.2-131.2-176-153.6zM748.8 748.8h-115.2c-6.4 38.4-16 73.6-28.8 102.4-9.6 22.4-19.2 38.4-32 51.2 80-19.2 147.2-76.8 176-153.6zM435.2 902.4c-12.8-12.8-22.4-32-32-51.2-12.8-28.8-22.4-64-28.8-102.4h-115.2c32 76.8 96 134.4 176 153.6zM134.4 425.6h-86.4c-16 0-28.8-12.8-28.8-28.8v-355.2c0-16 12.8-28.8 28.8-28.8h89.6c16 0 28.8 12.8 28.8 28.8v355.2c0 16-16 28.8-32 28.8zM137.6 41.6c0 0-3.2-3.2 0 0l-89.6-3.2c0 0-3.2 0-3.2 3.2v355.2c0 0 0 3.2 3.2 3.2h89.6c0 0 3.2 0 3.2-3.2v-355.2zM995.2 304c-19.2 28.8-57.6 35.2-83.2 16l-195.2-131.2-41.6 3.2v9.6c-3.2 41.6-35.2 73.6-76.8 80 0 0 0 0 0 0l-156.8 19.2c-35.2 6.4-67.2 16-99.2 35.2-41.6 22.4-86.4 38.4-131.2 41.6-6.4 0-16-6.4-16-12.8s6.4-16 12.8-16c41.6-3.2 83.2-16 118.4-35.2 32-19.2 70.4-32 108.8-38.4 0 0 0 0 0 0l156.8-19.2c28.8-3.2 48-25.6 51.2-54.4v-9.6l-224-35.2-96 22.4c-6.4 3.2-16-3.2-16-9.6 0-9.6 3.2-16 12.8-19.2l99.2-25.6c0 0 3.2 0 3.2 0s0 0 3.2 0l240 38.4 57.6-3.2c3.2 0 6.4 0 9.6 3.2l198.4 131.2c16 9.6 35.2 6.4 44.8-9.6 9.6-12.8 6.4-32-6.4-41.6l-195.2-176c-16-12.8-35.2-22.4-57.6-25.6l-304-41.6c0 0 0 0 0 0v0c-9.6 0-19.2 0-28.8 3.2l-160 60.8c-6.4 3.2-16 0-19.2-9.6-3.2-6.4 0-16 9.6-19.2l160-60.8c0 0 0 0 0 0 9.6-3.2 19.2-3.2 25.6-3.2 3.2 0 9.6 0 12.8 0 0 0 0 0 0 0l304 44.8c0 0 0 0 0 0 25.6 3.2 51.2 16 70.4 32 0 0 0 0 0 0l195.2 176c28.8 19.2 32 54.4 12.8 80z" />
<glyph unicode="&#xe967;" glyph-name="prontopago" d="M1020.532 488.677c-10.136 32.809-41.344 54.681-75.486 53.347l-7.202-0.267c-21.339-0.8-41.611-9.603-56.815-24.806l-113.096-112.029c-2.667 4.001-5.868 8.002-9.336 11.736-14.937 15.471-35.743 24.273-57.082 24.273h-159.508c-30.141 0-59.482 4.001-87.223 11.47-72.552 20.005-141.637 5.601-199.785-41.878-24.54-20.005-42.411-41.878-53.080-57.348-12.27 8.536-26.94 13.070-42.144 12.803-19.205-0.267-37.076-8.002-50.413-21.872l-103.76-107.228c-7.735-8.002-7.469-20.539 0.267-28.274l82.955-81.888c8.002-7.735 20.539-7.735 28.274 0.267s7.735 20.539-0.267 28.274l-68.818 68.018 89.357 92.824c5.868 6.135 13.87 9.603 22.406 9.603 8.536 0.267 16.538-2.934 22.673-9.069l159.508-154.707c6.135-5.868 9.603-13.87 9.603-22.406s-3.201-16.538-9.069-22.673l-87.756-90.157-22.673 21.606c-8.002 7.735-20.805 7.202-28.274-0.8-7.735-8.002-7.202-20.805 0.8-28.274l37.076-35.209c4.001-3.734 8.802-5.601 13.87-5.601 5.335 0 10.403 2.134 14.404 6.135l101.626 104.294c13.337 13.87 20.539 32.008 20.272 51.213 0 8.802-1.867 17.338-5.068 25.34l35.743 4.268c16.538 1.867 33.609 2.934 50.146 2.934h242.73c3.734 0 7.469 0.267 11.203 0.533l23.206 1.867c23.473 1.867 46.412 10.136 65.617 23.74 9.603 6.668 18.138 14.404 25.607 23.473l163.509 192.583c18.138 20.272 24.006 48.013 16.004 73.886zM974.654 440.665l-163.509-192.583c-5.335-6.135-11.47-11.736-18.138-16.271-13.604-9.603-29.608-15.204-46.145-16.538l-23.206-1.867c-2.667-0.267-5.335-0.267-7.735-0.267h-242.73c-18.405 0-36.81-1.067-54.948-3.201l-57.882-6.668-128.3 123.766c8.802 13.070 24.806 33.875 48.013 52.814 48.546 39.477 103.76 50.947 163.776 34.409 31.208-8.536 64.283-13.070 97.892-13.070h159.508c10.669 0 20.805-4.268 28.274-12.003 5.335-5.601 8.802-12.537 10.136-19.738 0-1.867 0.267-3.734 0.8-5.335 0.533-9.336-2.401-18.938-8.536-26.674l-0.533-0.8c-7.469-9.336-18.672-14.67-30.675-14.67h-138.97c-11.203 0-20.005-9.069-20.005-20.005 0-11.203 9.069-20.005 20.005-20.005h138.97c24.273 0 46.679 10.936 61.883 29.608l0.533 0.8c11.47 14.404 17.338 32.008 17.338 49.346l128.567 127.233c8.002 8.002 18.672 12.803 30.141 13.337l7.202 0.267c16.271 0.8 30.675-9.603 35.476-25.073 4.268-13.337 1.334-26.94-7.202-36.81zM159.508 283.557c-29.874 0-54.414-24.273-54.414-54.414 0-29.874 24.273-54.414 54.414-54.414s54.414 24.273 54.414 54.414c0 30.141-24.54 54.414-54.414 54.414zM159.508 215.006c-7.735 0-14.137 6.402-14.137 14.137s6.402 14.137 14.137 14.137c7.735 0 14.137-6.402 14.137-14.137s-6.402-14.137-14.137-14.137zM476.391 318.5l-1.067-0.267c-10.669-2.401-17.605-13.337-14.937-24.006 2.134-9.336 10.403-15.471 19.472-15.471 1.6 0 2.934 0.267 4.535 0.533l1.067 0.267c10.669 2.401 17.338 13.337 14.937 24.006s-13.070 17.338-24.006 14.937zM156.841 106.178l-1.067-0.267c-10.669-2.667-17.338-13.337-14.937-24.006 2.134-9.336 10.403-15.471 19.472-15.471 1.6 0 2.934 0.267 4.535 0.533l1.067 0.267c10.669 2.401 17.605 13.337 14.937 24.006-2.401 10.669-13.070 17.338-24.006 14.937zM587.086 492.678c117.097 0 212.322 95.225 212.322 212.322s-95.225 212.055-212.322 212.055c-48.013 0-93.358-15.737-130.967-45.345-8.536-6.668-16.804-14.137-24.273-22.139-11.203-12.003-21.072-25.073-29.074-39.477-18.405-32.008-28.007-68.551-28.007-105.628 0-116.564 95.225-211.788 212.322-211.788zM437.447 790.356c6.668 11.47 14.404 22.139 23.473 32.008 6.135 6.402 12.803 12.537 19.738 18.138 30.675 24.006 67.218 36.543 106.161 36.543 94.958 0 172.045-77.353 172.045-172.045 0-94.958-77.353-172.045-172.045-172.045-94.958 0-172.045 77.353-172.045 172.045 0 29.874 8.002 59.482 22.673 85.356zM604.691 636.182c-8.002-4.801-18.672-6.402-25.607-6.402-13.604 0-25.34 16.004-25.34 34.142 0 11.203-9.069 20.005-20.005 20.005-11.203 0-20.005-9.069-20.005-20.005 0-34.676 21.072-64.017 49.613-72.019 0.533-10.403 9.336-18.938 20.005-18.938 10.936 0 19.738 8.802 20.005 19.738 29.074 7.469 53.881 29.074 53.881 66.684 0 45.078-46.145 69.885-69.885 69.885-0.267 0-29.874 2.667-29.874 21.339 0 28.808 29.341 29.608 29.874 29.608 5.601 0 12.27-3.201 17.605-8.536 2.667-2.667 2.934-2.934 2.934-13.604 0-11.203 9.069-20.005 20.005-20.005 11.203 0 20.005 9.069 20.005 20.005 0 12.803 0 27.474-14.67 41.878-8.802 8.802-19.205 14.937-30.141 18.138-0.533 10.403-9.336 18.938-20.005 18.938-11.203 0-20.005-9.069-20.005-20.005v-1.334c-21.872-8.269-45.612-27.474-45.612-65.084 0-45.879 47.746-61.616 69.618-61.616 6.135-0.533 29.874-10.936 29.874-29.608 0.267-10.936-3.734-18.138-12.27-23.206zM294.743 709.001h-171.511c-8.802 0-16.004 7.202-16.004 16.004s7.202 16.004 16.004 16.004h171.245c8.802 0 16.004-7.202 16.004-16.004s-6.935-16.004-15.737-16.004zM320.35 627.113h-107.228c-8.802 0-16.004 7.202-16.004 16.004s7.202 16.004 16.004 16.004h107.228c8.802 0 16.004-7.202 16.004-16.004s-7.202-16.004-16.004-16.004zM314.749 782.62h-59.215c-8.802 0-16.004 7.202-16.004 16.004s7.202 16.004 16.004 16.004h59.215c8.802 0 16.004-7.202 16.004-16.004s-7.202-16.004-16.004-16.004z" />
<glyph unicode="&#xe968;" glyph-name="encuestatns" d="M810.878 874.644h-89.357c-8.802 24.806-32.275 42.678-60.016 42.678h-64.55c-20.005 26.674-51.48 42.678-84.822 42.678s-64.817-16.004-84.822-42.678h-64.55c-27.741 0-51.213-17.871-60.016-42.678h-89.357c-46.946 0-85.356-38.143-85.356-85.356v-767.933c0-46.946 38.143-85.356 85.356-85.356h597.489c46.946 0 85.356 38.143 85.356 85.356v767.933c0 47.212-38.41 85.356-85.356 85.356zM341.422 853.306c0 11.736 9.603 21.339 21.339 21.339h75.753c7.469 0 14.67 4.001 18.405 10.669 11.736 20.005 32.275 32.008 54.948 32.008s43.478-12.003 54.948-32.008c3.734-6.668 10.936-10.669 18.405-10.669h76.287c11.736 0 21.339-9.603 21.339-21.339v-21.339c0-23.473-19.205-42.678-42.678-42.678h-256.067c-23.473 0-42.678 19.205-42.678 42.678v21.339zM853.556 21.356c0-23.473-19.205-42.678-42.678-42.678h-597.489c-23.473 0-42.678 19.205-42.678 42.678v767.933c0 23.473 19.205 42.678 42.678 42.678h85.356c0-46.946 38.143-85.356 85.356-85.356h256.067c46.946 0 85.356 38.143 85.356 85.356h85.356c23.473 0 42.678-19.205 42.678-42.678v-767.933zM362.761 618.578h-85.356c-11.736 0-21.339-9.603-21.339-21.339v-85.356c0-11.736 9.603-21.339 21.339-21.339h85.356c11.736 0 21.339 9.603 21.339 21.339v85.356c0 12.003-9.603 21.339-21.339 21.339zM341.422 533.222h-42.678v42.678h42.678v-42.678zM362.761 405.456h-85.356c-11.736 0-21.339-9.603-21.339-21.339v-85.356c0-11.736 9.603-21.339 21.339-21.339h85.356c11.736 0 21.339 9.603 21.339 21.339v85.356c0 11.736-9.603 21.339-21.339 21.339zM341.422 320.1h-42.678v42.678h42.678v-42.678zM362.761 192.067h-85.356c-11.736 0-21.339-9.603-21.339-21.339v-85.356c0-11.736 9.603-21.339 21.339-21.339h85.356c11.736 0 21.339 9.603 21.339 21.339v85.356c0 11.736-9.603 21.339-21.339 21.339zM341.422 106.711h-42.678v42.678h42.678v-42.678zM505.998 569.765c-8.269 8.269-21.872 8.269-30.141 0l-6.135-6.135-6.135 6.135c-8.269 8.269-21.872 8.269-30.141 0s-8.269-21.872 0-30.141l6.135-6.135-6.135-6.135c-8.269-8.269-8.269-21.872 0-30.141 4.268-4.268 9.603-6.135 15.204-6.135 5.335 0 10.936 2.134 15.204 6.135l6.135 6.135 6.135-6.135c4.268-4.268 9.603-6.135 15.204-6.135s10.936 2.134 15.204 6.135c8.269 8.269 8.269 21.872 0 30.141l-6.135 6.135 6.135 6.135c7.735 8.269 7.735 21.872-0.533 30.141zM633.765 569.765c-8.269 8.269-21.872 8.269-30.141 0l-6.135-6.135-6.135 6.135c-8.269 8.269-21.872 8.269-30.141 0s-8.269-21.872 0-30.141l6.135-6.135-6.135-6.135c-8.269-8.269-8.269-21.872 0-30.141 4.268-4.268 9.603-6.135 15.204-6.135s10.936 2.134 15.204 6.135l6.135 6.135 6.135-6.135c4.268-4.268 9.603-6.135 15.204-6.135s10.936 2.134 15.204 6.135c8.269 8.269 8.269 21.872 0 30.141l-6.135 6.135 6.135 6.135c8.002 8.269 8.002 21.872-0.533 30.141zM505.998 356.376c-8.269 8.269-21.872 8.269-30.141 0l-6.135-6.135-6.135 6.135c-8.269 8.269-21.872 8.269-30.141 0s-8.269-21.872 0-30.141l6.135-6.135-6.135-6.135c-8.269-8.269-8.269-21.872 0-30.141 4.268-4.268 9.603-6.135 15.204-6.135 5.335 0 10.936 2.134 15.204 6.135l6.135 6.135 6.135-6.135c4.268-4.268 9.603-6.135 15.204-6.135s10.936 2.134 15.204 6.135c8.269 8.269 8.269 21.872 0 30.141l-6.135 6.135 6.135 6.135c7.735 8.269 7.735 21.872-0.533 30.141zM633.765 356.376c-8.269 8.269-21.872 8.269-30.141 0l-6.135-6.135-6.135 6.135c-8.269 8.269-21.872 8.269-30.141 0s-8.269-21.872 0-30.141l6.135-6.135-6.135-6.135c-8.269-8.269-8.269-21.872 0-30.141 4.268-4.268 9.603-6.135 15.204-6.135s10.936 2.134 15.204 6.135l6.135 6.135 6.135-6.135c4.268-4.268 9.603-6.135 15.204-6.135s10.936 2.134 15.204 6.135c8.269 8.269 8.269 21.872 0 30.141l-6.135 6.135 6.135 6.135c8.002 8.269 8.002 21.872-0.533 30.141zM505.998 142.987c-8.269 8.269-21.872 8.269-30.141 0l-6.135-6.135-6.135 6.135c-8.269 8.269-21.872 8.269-30.141 0s-8.269-21.872 0-30.141l6.135-6.135-6.135-6.135c-8.269-8.269-8.269-21.872 0-30.141 4.268-4.268 9.603-6.135 15.204-6.135 5.335 0 10.936 2.134 15.204 6.135l6.135 6.135 6.135-6.135c4.268-4.268 9.603-6.135 15.204-6.135s10.936 2.134 15.204 6.135c8.269 8.269 8.269 21.872 0 30.141l-6.135 6.135 6.135 6.135c7.735 8.536 7.735 21.872-0.533 30.141zM761.798 569.765c-8.269 8.269-21.872 8.269-30.141 0l-6.135-6.135-6.135 6.135c-8.269 8.269-21.872 8.269-30.141 0s-8.269-21.872 0-30.141l6.135-6.135-6.135-6.135c-8.269-8.269-8.269-21.872 0-30.141 4.268-4.268 9.603-6.135 15.204-6.135 5.335 0 10.936 2.134 15.204 6.135l6.135 6.135 6.135-6.135c4.268-4.268 9.603-6.135 15.204-6.135s10.936 2.134 15.204 6.135c8.269 8.269 8.269 21.872 0 30.141l-6.135 6.135 6.135 6.135c8.002 8.269 8.002 21.872-0.533 30.141z" />
<glyph unicode="&#xe969;" glyph-name="marcanueva" d="M926.375 147.255c27.207 37.343 26.407 85.089-1.6 121.632-10.669 13.87-13.604 31.208-8.269 47.746s18.138 28.808 34.676 33.875c44.278 13.070 72.819 51.213 72.819 97.359s-28.541 84.289-72.819 97.359c-16.804 4.801-29.341 17.338-34.676 33.875s-2.401 34.142 8.269 47.746c28.274 36.543 28.808 84.289 1.6 121.632s-72.819 51.48-116.297 36.009c-16.538-5.868-33.875-3.201-48.013 6.935s-21.872 26.14-21.339 43.478c1.334 46.145-26.14 85.089-70.152 99.493-44.011 14.137-89.090-1.067-115.23-39.21-9.869-14.404-25.607-22.673-42.945-22.673s-33.075 8.269-42.945 22.673c-26.14 38.143-71.219 53.347-115.23 39.21s-71.485-53.347-70.152-99.493c0.533-17.338-7.202-33.342-21.339-43.478s-31.742-12.803-48.013-6.935c-44.011 15.737-89.623 1.867-116.83-35.743-27.207-37.343-26.407-85.089 1.6-121.632 10.669-13.87 13.604-31.208 8.269-47.746s-18.138-28.808-34.676-33.875c-44.278-13.070-72.819-51.213-72.819-97.359s28.541-84.555 72.819-97.359c16.804-4.801 29.341-17.338 34.676-33.875s2.401-34.142-8.269-47.746c-28.274-36.543-28.808-84.289-1.6-121.632s72.819-51.48 116.297-36.009c5.868 2.134 11.736 3.201 17.605 3.201 10.669 0 21.339-3.468 30.408-10.136 14.137-10.136 21.872-26.14 21.339-43.478-1.334-46.145 26.14-85.089 70.152-99.493 10.669-3.468 21.606-5.335 32.542-5.335 33.075 0 63.216 16.271 82.688 44.545 9.869 14.404 25.607 22.673 42.945 22.673s33.075-8.269 42.945-22.673c26.14-38.143 71.219-53.347 115.23-39.21s71.485 53.347 70.152 99.493c-0.533 17.338 7.202 33.342 21.339 43.478s31.742 12.803 48.013 6.935c44.011-15.737 89.623-1.6 116.83 35.743zM886.097 176.329c-10.936-15.204-32.542-28.007-59.482-18.405-31.475 11.203-66.684 6.135-93.891-13.604s-42.678-51.48-41.878-85.089c0.8-28.808-18.138-45.078-36.009-50.947-5.335-1.6-10.936-2.667-17.071-2.667-14.67 0-30.408 6.135-41.878 22.673-18.938 27.741-50.413 44.278-83.755 44.278-33.609 0-64.817-16.538-83.755-44.278-16.271-23.74-41.077-25.873-58.949-20.005s-36.81 22.139-36.009 50.947c0.8 33.609-14.67 65.35-41.878 85.089-17.605 12.803-38.143 19.472-59.749 19.472-11.736 0-23.206-1.867-34.142-5.868-26.94-9.603-48.546 3.201-59.482 18.405s-16.538 39.477 0.8 62.416c20.539 26.674 26.407 61.349 16.004 93.358s-35.743 56.548-68.018 66.151c-27.474 8.002-37.343 31.208-37.343 49.88s9.869 41.878 37.343 49.88c32.275 9.603 57.615 34.142 68.018 66.151s4.268 66.684-16.004 93.358c-17.605 22.673-12.003 47.212-0.8 62.416 10.936 15.204 32.542 28.007 59.482 18.405 31.475-11.203 66.684-6.135 93.891 13.604s42.678 51.48 41.878 85.089c-0.8 28.808 18.138 45.078 36.009 50.947s42.678 3.468 58.949-20.005c18.938-27.741 50.413-44.278 83.755-44.278 33.609 0 64.817 16.538 83.755 44.278 16.271 23.74 41.077 25.873 58.949 20.005s36.81-22.139 36.009-50.947c-0.8-33.609 14.67-65.35 41.878-85.089s62.15-24.806 93.891-13.604c26.94 9.603 48.546-3.201 59.482-18.405s16.538-39.477-0.8-62.416c-20.539-26.674-26.407-61.616-16.004-93.358 10.403-32.008 35.743-56.548 68.018-66.151 27.474-8.002 37.343-31.208 37.343-49.88 0-18.938-9.869-41.878-37.343-49.88-32.275-9.603-57.615-34.142-68.018-66.151s-4.268-66.684 16.004-93.358c17.605-22.939 12.003-47.212 0.8-62.416zM661.506 474.807c-1.867 1.334-4.001 1.867-6.402 1.867h-113.096v113.096c0 2.667-0.533 4.801-1.867 6.668-0.533 0.8-1.6 1.867-3.734 1.867h-46.679c-2.401 0-3.201-0.8-3.734-1.867-1.334-1.867-1.867-4.001-1.867-6.668v-113.096h-112.563c-2.667 0-4.801-0.533-6.668-1.867-0.8-0.533-1.867-1.6-1.867-3.734v-46.679c0-2.401 0.8-3.201 1.867-3.734 1.867-1.334 4.001-1.867 6.668-1.867h112.563v-112.563c0-2.667 0.533-4.801 1.867-6.402 0.533-0.8 1.6-1.867 3.734-1.867h46.679c2.401 0 3.201 0.8 3.734 1.867 1.334 1.867 1.867 4.001 1.867 6.402v112.563h113.096c2.667 0 4.801 0.533 6.402 1.867v0c0.8 0.533 1.867 1.6 1.867 3.734v46.679c0 2.134-0.8 3.201-1.867 3.734z" />
<glyph unicode="&#xe96a;" glyph-name="earlybird" d="M917.839 826.632h-64.283v50.947c0 14.67-12.003 26.674-26.674 26.674s-26.674-12.003-26.674-26.674v-50.947h-261.401v50.947c0 14.67-12.003 26.674-26.674 26.674s-26.674-12.003-26.674-26.674v-50.947h-264.069v50.947c0 14.67-12.003 26.674-26.674 26.674s-26.674-12.003-26.674-26.674v-50.947h-61.616c-58.682 0-106.428-49.346-106.428-108.028v-620.162c0-58.949 47.479-106.694 106.428-106.694h811.145c58.949 0 106.428 47.746 106.428 106.428v620.428c0.267 58.682-47.479 108.028-106.161 108.028zM970.92 98.442c0-29.341-23.473-53.080-52.814-53.347h-811.678c-29.341 0-53.080 23.74-53.080 53.080v620.428c0 29.608 23.74 54.681 53.080 54.681h61.616v-38.677c0-14.67 12.003-26.674 26.674-26.674s26.674 12.003 26.674 26.674v38.677h264.069v-38.677c0-14.67 12.003-26.674 26.674-26.674s26.674 12.003 26.674 26.674v38.677h261.401v-38.677c0-14.67 12.003-26.674 26.674-26.674s26.674 12.003 26.674 26.674v38.677h64.283c29.608 0 53.080-25.34 53.080-54.681v-620.162zM441.982 599.906h-46.679c-14.67 0-26.674-12.003-26.674-26.674s12.003-26.674 26.674-26.674h46.679c14.67 0 26.674 12.003 26.674 26.674s-12.003 26.674-26.674 26.674zM627.63 599.906h-46.679c-14.67 0-26.674-12.003-26.674-26.674s12.003-26.674 26.674-26.674h46.679c14.67 0 26.674 12.003 26.674 26.674s-11.736 26.674-26.674 26.674zM814.879 599.906h-46.679c-14.67 0-26.674-12.003-26.674-26.674s12.003-26.674 26.674-26.674h46.679c14.67 0 26.674 12.003 26.674 26.674s-12.003 26.674-26.674 26.674zM441.982 415.858h-46.679c-14.67 0-26.674-12.003-26.674-26.674s12.003-26.674 26.674-26.674h46.679c14.67 0 26.674 12.003 26.674 26.674s-12.003 26.674-26.674 26.674zM255 415.858h-46.946c-14.67 0-26.674-12.003-26.674-26.674s12.003-26.674 26.674-26.674h46.679c14.67 0 26.674 12.003 26.674 26.674s-11.736 26.674-26.407 26.674zM627.63 415.858h-46.679c-14.67 0-26.674-12.003-26.674-26.674s12.003-26.674 26.674-26.674h46.679c14.67 0 26.674 12.003 26.674 26.674s-11.736 26.674-26.674 26.674zM814.879 415.858h-46.679c-14.67 0-26.674-12.003-26.674-26.674s12.003-26.674 26.674-26.674h46.679c14.67 0 26.674 12.003 26.674 26.674s-12.003 26.674-26.674 26.674zM441.982 234.478h-46.679c-14.67 0-26.674-12.003-26.674-26.674s12.003-26.674 26.674-26.674h46.679c14.67 0 26.674 12.003 26.674 26.674s-12.003 26.674-26.674 26.674zM255 234.478h-46.946c-14.67 0-26.674-12.003-26.674-26.674s12.003-26.674 26.674-26.674h46.679c14.67 0 26.674 12.003 26.674 26.674s-11.736 26.674-26.407 26.674zM627.63 234.478h-46.679c-14.67 0-26.674-12.003-26.674-26.674s12.003-26.674 26.674-26.674h46.679c14.67 0 26.674 12.003 26.674 26.674s-11.736 26.674-26.674 26.674z" />
<glyph unicode="&#xe96b;" glyph-name="chevron-left" d="M327.18-41.522l442.068 462.049c17.483 17.483 17.483 44.956 0 62.439l-442.068 462.049c-17.483 19.98-44.956 19.98-62.439 2.498s-17.483-44.956-2.498-64.937l412.098-429.58-412.098-432.078c-7.493-7.493-12.488-19.98-12.488-29.971 0-12.488 4.995-24.976 14.985-32.468 7.493-7.493 19.98-12.488 29.971-12.488 12.488 0 24.976 4.995 32.468 12.488z" />
<glyph unicode="&#xe96c;" glyph-name="4" d="M542.281 317.34h-231.226v16.516l211.406 346.839h75.974v-317.11h62.761v-46.245h-62.761v-95.794h-56.155zM542.281 363.585v277.471l-158.555-277.471zM512 960c-282.574 0-512-229.426-512-512s229.426-512 512-512c282.574 0 512 229.426 512 512s-229.426 512-512 512zM512 926.968c264.722 0 478.968-214.246 478.968-478.968s-214.246-478.968-478.968-478.968c-264.722 0-478.968 214.246-478.968 478.968s214.246 478.968 478.968 478.968z" />
</font>
</defs>
</svg>
